Экстрасенсы / Solace (2015) BDRip 720p | iTunes

 
Автор Сообщение

BOSS ®

Пол:

Стаж: 2 года 1 месяц

Сообщений: 3712

Откуда: ODESSA



Награды: 20 (Подробнее)

Top Keeper 3 (Количество: 1) Mega Releaser 3 (Количество: 1) Top Keeper 1 (Количество: 1)
Торрент-статистика

Создавать темы 14-Апр-2016 04:50

[Цитировать]

Информация о фильме
Название: Экстрасенсы
Оригинальное название: Solace
Год выхода: 2015
Жанр: триллер, детектив
Режиссер: Афонсо Пойарт / Afonso Poyart
В ролях: Энтони Хопкинс, Джеффри Дин Морган, Колин Фаррелл, Эбби Корниш, Марли Шелтон, Джанин Тёрнер, Ксандер Беркли, Кенни Джонсон, Хосе Пабло Кантилльо, Джошуа Клоуз...
О фильме:
Напарники, Джо и Кэтрин, детективы из ФБР расследуют череду загадочных убийств. Все преступления объединяет нечто сверхъестественное - серийный убийца всегда на шаг впереди лучших сыщиков. Тогда на помощь правосудию приходит отставной аналитик спецслужб доктор Джон Кленси. Его исключительная интуиция и интеллект могут помочь поймать убийцу, но вскоре Джон понимает - его соперник значительно превосходит его в способностях.

Страна: США
Продолжительность: 01:41:12
Перевод: Профессиональный (полное дублирование) [iTunes]
Файл
Кодек: x264
Качество: BDRip 720p
Видео: 1280х528 (2.40:1), 23,976 fps, AVC (H.264), High@L4.1, ~3150 Kbps avg, 0.194 bit/pixel
Аудио #1: 48 kHz, AC3 Dolby Digital, 3/2 (L,C,R,l,r) + LFE ch, ~384.00 kbps avg | RUS
Аудио #2: 48 kHz, AC3 Dolby Digital, 3/2 (L,C,R,l,r) + LFE ch, ~640.00 kbps avg | ENG

MI

General
Unique ID : 208620697839518545574686887742514786252 (0x9CF2E288BA750C3AA8995643D801EFCC)
Complete name : J:СборкаЭкстрасенсы. - Solace.2015.720p.BDRip.x264.AC3-iTunes.mkv
Format : Matroska
Format version : Version 4 / Version 2
File size : 2.95 GiB
Duration : 1h 41mn
Overall bit rate : 4 169 Kbps
Encoded date : UTC 2016-04-13 20:46:52
Writing application : mkvmerge v7.3.0 ('Nouages') 32bit built on Oct 22 2014 18:44:01
Writing library : libebml v1.3.0 + libmatroska v1.4.1
DURATION : 01:41:12.160000000
NUMBER_OF_FRAMES : 189755
NUMBER_OF_BYTES : 291463680
_STATISTICS_WRITING_APP : mkvmerge v7.3.0 ('Nouages') 32bit built on Oct 22 2014 18:44:01
_STATISTICS_WRITING_DATE_UTC : 2016-04-13 20:46:52
_STATISTICS_TAGS : BPS DURATION NUMBER_OF_FRAMES NUMBER_OF_BYTES
Video #1
ID : 1
Format : AVC
Format/Info : Advanced Video Codec
Format profile : High@L4.1
Format settings, CABAC : Yes
Format settings, ReFrames : 12 frames
Codec ID : V_MPEG4/ISO/AVC
Duration : 1h 41mn
Bit rate : 3 150 Kbps
Width : 1 280 pixels
Height : 528 pixels
Display aspect ratio : 2.40:1
Frame rate mode : Constant
Frame rate : 23.976 fps
Color space : YUV
Chroma subsampling : 4:2:0
Bit depth : 8 bits
Scan type : Progressive
Bits/(Pixel*Frame) : 0.194
Stream size : 2.16 GiB (73%)
Writing library : x264 core 148 r2665kMod a01e339
Encoding settings : cabac=1 / ref=12 / deblock=1:-3:-3 / analyse=0x3:0x133 / me=umh / subme=10 / psy=1 / fade_compensate=0.00 / psy_rd=1.00:0.00 / mixed_ref=1 / me_range=64 / chroma_me=1 / trellis=2 / 8x8dct=1 / cqm=0 / deadzone=21,11 / fast_pskip=0 / chroma_qp_offset=-2 / threads=12 / lookahead_threads=3 / sliced_threads=0 / nr=0 / decimate=1 / interlaced=0 / bluray_compat=0 / constrained_intra=0 / fgo=0 / bframes=11 / b_pyramid=2 / b_adapt=2 / b_bias=0 / direct=3 / weightb=1 / open_gop=0 / weightp=2 / keyint=240 / keyint_min=23 / scenecut=40 / intra_refresh=0 / rc_lookahead=240 / rc=2pass / mbtree=1 / bitrate=3150 / ratetol=1.0 / qcomp=0.60 / qpmin=0 / qpmax=69 / qpstep=4 / cplxblur=20.0 / qblur=0.5 / vbv_maxrate=40000 / vbv_bufsize=30000 / nal_hrd=none / filler=0 / ip_ratio=1.40 / aq=1:1.00
Default : Yes
Forced : No
Color primaries : BT.709
Transfer characteristics : BT.709
Matrix coefficients : BT.709
Audio #2
ID : 2
Format : AC-3
Format/Info : Audio Coding 3
Mode extension : CM (complete main)
Format settings, Endianness : Big
Codec ID : A_AC3
Duration : 1h 41mn
Bit rate mode : Constant
Bit rate : 384 Kbps
Channel(s) : 6 channels
Channel positions : Front: L C R, Side: L R, LFE
Sampling rate : 48.0 KHz
Bit depth : 16 bits
Compression mode : Lossy
Stream size : 278 MiB (9%)
Default : No
Forced : No
Audio #3
ID : 3
Format : AC-3
Format/Info : Audio Coding 3
Mode extension : CM (complete main)
Format settings, Endianness : Big
Codec ID : A_AC3
Duration : 1h 41mn
Bit rate mode : Constant
Bit rate : 640 Kbps
Channel(s) : 6 channels
Channel positions : Front: L C R, Side: L R, LFE
Sampling rate : 48.0 KHz
Bit depth : 16 bits
Compression mode : Lossy
Stream size : 463 MiB (15%)
Title : English
Language : English
Default : Yes
Forced : No

Скриншоты

[Профиль] [ЛС]
Показать сообщения:    

Текущее время: Сегодня 02:40

Часовой пояс: GMT



Вы не можете начинать темы
Вы не можете отвечать на сообщения
Вы не можете редактировать свои сообщения
Вы не можете удалять свои сообщения
Вы не можете голосовать в опросах
Вы не можете прикреплять файлы к сообщениям
Вы не можете скачивать файлы