ЭкстраМен / Сопровождение / The Extra Man (Шари Спрингер Берман / Shari Springer Berman, Роберт Пульчини / Robert Pulcini) [2010, США, Франция, драма, комедия, BDRip] MVO (R5)

 
Автор Сообщение

painkiller ®

Стаж: 2 года 3 месяца

Сообщений: 582



Награды: Нет

Торрент-статистика

Создавать темы 14-Авг-2014 13:02

[Цитировать]

ЭкстраМен / The Extra Man
Страна: США, Франция
Жанр: драма, комедия
Год выпуска: 2010
Продолжительность: 01:47:31
Перевод: Профессиональный (многоголосый закадровый) R5/Позитив/Русский Репортаж
Cубтитры: нет
Режиссер: Шари Спрингер Берман / Shari Springer Berman, Роберт Пульчини / Robert Pulcini
В ролях: Кевин Клайн, Пол Дано, Джон Си Райли, Мэриэн Селдес, Селия Уэстон, Патти Д’Арбанвиль, Дэн Хедайя, Кэти Холмс, Линн Коэн, Джон Пэнкоу, Джейсон Батлер Харнер, Алекс Барнс, Алисия Горансон
Описание: История драматурга-неудачника, которого только что уволили. Главный герой начинает работать в службе эскорт-услуг и с этого момента становится сопровождающим лицом для богатых вдов в Нью-Йорке.
Доп. информация:
Качество видео: BDRip | HPotter/1080p BD-Remux
Формат видео: AVI
Видео: 720x400 (1.80:1), 24 fps, XviD build 73 ~1480 kbps avg, 0.21 bit/pixel
Аудио: 48 kHz, AC3 Dolby Digital, 3/2 (L,C,R,l,r) + LFE ch, ~448 kbps

MediaInfo

Общее
Полное имя : C:\Documents and Settings\Пользователь\Рабочий стол\Торрентс.ру\The.Extra.Man.2010.BDRip.MVO_by_LBS.avi
Формат : AVI
Формат/Информация : Audio Video Interleave
Размер файла : 1,46 Гбайт
Продолжительность : 1 ч. 47 м.
Общий поток : 1938 Кбит/сек
Режиссёр : Last Boy Scout
Программа кодирования : VirtualDubMod 1.5.10.3 | www.virtualdub-fr.org || (build 2550/release)
Правообладатель : torrentfilm.net 20.03.2014
Примечание : BDRip MVO (R5)
Видео
Идентификатор : 0
Формат : MPEG-4 Visual
Профиль формата : Advanced Simple@L5
Параметр BVOP формата : 1
Параметр QPel формата : Нет
Параметр GMC формата : Без точки перехода
Параметр матрицы формата : Выборочная
Идентификатор кодека : XVID
Идентификатор кодека/Подсказка : XviD
Продолжительность : 1 ч. 47 м.
Битрейт : 1481 Кбит/сек
Ширина : 720 пикселей
Высота : 400 пикселей
Соотношение сторон : 16:9
Частота кадров : 24,000 кадра/сек
Цветовое пространство : YUV
Субдискретизация насыщенности : 4:2:0
Битовая глубина : 8 бит
Тип развёртки : Прогрессивная
Метод сжатия : С потерями
Бит/(Пиксели*Кадры) : 0.214
Размер потока : 1,11 Гбайт (76%)
Библиотека кодирования : XviD 73
Аудио
Идентификатор : 1
Формат : AC-3
Формат/Информация : Audio Coding 3
Расширение режима : CM (complete main)
Параметр Endianness формата : Big
Идентификатор кодека : 2000
Продолжительность : 1 ч. 47 м.
Вид битрейта : Постоянный
Битрейт : 448 Кбит/сек
Каналы : 6 каналов
Расположение каналов : Front: L C R, Side: L R, LFE
Частота : 48,0 КГц
Битовая глубина : 16 бит
Метод сжатия : С потерями
Размер потока : 344 Мбайт (23%)
Выравнивание : Разделение по промежуткам
Продолжительность промежутка : 42 мс. (1,00 видеокадр)
Время предзагрузки промежутка : 500 мс.

Скриншоты

Скриншот с названием и сэмпл

- диск немецкий
http://multi-up.com/960341
---
[Профиль] [ЛС]

Создавать темы 06-Авг-2015 23:13 (спустя 11 месяцев 23 дня)

Топик был перенесен из форума Фильмы до 2014 года в форум Фильмы до 2012 года
sergej644
 

Создавать темы 12-Июн-2016 07:54 (спустя 1 год 9 месяцев)

Топик был перенесен из форума Фильмы 2011 года в форум Фильмы 2010 года
Russian Mafia
 
Показать сообщения:    

Текущее время: Сегодня 14:21

Часовой пояс: GMT



Вы не можете начинать темы
Вы не можете отвечать на сообщения
Вы не можете редактировать свои сообщения
Вы не можете удалять свои сообщения
Вы не можете голосовать в опросах
Вы не можете прикреплять файлы к сообщениям
Вы не можете скачивать файлы