Экспириенс (Евгений Татаров) [2015, Россия, драма, HDTV 1080i]

 
Автор Сообщение

TorrentFilm ®

Пол:

Стаж: 2 года

Сообщений: 7741



Награды: Нет

Торрент-статистика

Создавать темы 18-Фев-2016 00:08

[Цитировать]

Экспириенс
Страна: Россия
Студия: АТК-Студио
Жанр: Драма
Год выпуска: 2015
Продолжительность: 01:29:59
Оригинальная аудиодорожка: русский
Cубтитры: Нет
Режиссер: Евгений Татаров
В ролях:
Кирилл Жандаров
Владимир Меньшов
Галина Сумина
Юрий Елагин
Ирина Ларионова
Евгений Леонов-Гладышев
Ирина Яковлева
Александр Тютрюмов
Владимир Матвеев
Сергей Рост
Описание: Молодой учёный на пороге сенсационного открытия. Его программа по коррекции памяти обещает навсегда избавить людей от негативных воспоминаний. Успех проекта приносит его создателю славу, деньги и... осознание оборотной стороны вмешательства в жизненный опыт человека.
Доп. информация: Запись со спутника Eutelsat 36A/B, телеканал "Наше HD".
Сэмпл: http://multi-up.com/1089336
Релиз:
Тип релиза: HDTV 1080i
Контейнер: MKV
Видео: AVC, 1920x1080i, 25.000 fps, 3657 kbps
Аудио: Русский (Dolby AC3 5.1, 48 kHz, 448 kbps)

MediaInfo

Общее
Уникальный идентификатор : 244149458345541605984138820655479538950 (0xB7AD79AB83D30537951E413B7ED84506)
Полное имя : E:\Экспириенс_2015_HDTV_1080i.mkv
Формат : Matroska
Версия формата : Version 2
Размер файла : 2,63 Гбайт
Продолжительность : 1 ч. 29 м.
Общий поток : 4188 Кбит/сек
Дата кодирования : UTC 2016-02-15 16:09:45
Программа кодирования : mkvmerge v5.6.0 ('Kenya Kane') built on May 27 2012 16:44:04
Библиотека кодирования : libebml v1.2.3 + libmatroska v1.3.0
Видео
Идентификатор : 1
Формат : AVC
Формат/Информация : Advanced Video Codec
Профиль формата : Main@L4
Параметр CABAC формата : Да
Параметр ReFrames формата : 3 кадра
Идентификатор кодека : V_MPEG4/ISO/AVC
Продолжительность : 1 ч. 29 м.
Битрейт : 3657 Кбит/сек
Ширина : 1920 пикселей
Высота : 1080 пикселей
Соотношение сторон : 16:9
Режим частоты кадров : Постоянный
Частота кадров : 25,000 кадров/сек
Стандарт вещания : Component
Цветовое пространство : YUV
Субдискретизация насыщенности : 4:2:0
Битовая глубина : 8 бит
Тип развёртки : Чересстрочная
Метод сохранения типа развёртки : Раздельные поля
Порядок развёртки : Верхнее поле первое
Бит/(Пиксели*Кадры) : 0.071
Размер потока : 2,30 Гбайт (87%)
Default : Да
Forced : Нет
Цветовой диапазон : Limited
Основные цвета : BT.709
Характеристики трансфера : BT.709
Коэффициенты матрицы : BT.709
Аудио
Идентификатор : 2
Формат : AC-3
Формат/Информация : Audio Coding 3
Расширение режима : CM (complete main)
Параметр Endianness формата : Big
Идентификатор кодека : A_AC3
Продолжительность : 1 ч. 29 м.
Вид битрейта : Постоянный
Битрейт : 448 Кбит/сек
Каналы : 6 каналов
Расположение каналов : Front: L C R, Side: L R, LFE
Частота : 48,0 КГц
Частота кадров : 31,250 кадров/сек (1536 spf)
Метод сжатия : С потерями
Задержка видео : 53 мс.
Размер потока : 288 Мбайт (11%)
Язык : Russian
Default : Да
Forced : Нет

Скриншоты

[Профиль] [ЛС]
Кто просматривает тему:

Форум Тема Автор Размер
Фильмы 2015 года Экспириенс (2015) SATRip BOSS 1.37 GB
Фильмы 2015 года Экспириенс (2015) SATRip-AVC достали все 1.37 GB
Показать сообщения:    

Текущее время: Сегодня 08:17

Часовой пояс: GMT



Вы не можете начинать темы
Вы не можете отвечать на сообщения
Вы не можете редактировать свои сообщения
Вы не можете удалять свои сообщения
Вы не можете голосовать в опросах
Вы не можете прикреплять файлы к сообщениям
Вы не можете скачивать файлы