Эксперимент (Ефим Гамбург) [1988, CCCР, Рисованный мультфильм, WEBRip]

 
Автор Сообщение

TorrentFilm ®

Пол:

Стаж: 1 год 11 месяцев

Сообщений: 7741



Награды: Нет

Торрент-статистика

Создавать темы 17-Янв-2016 00:08

[Цитировать]

Эксперимент
Страна: CCCР
Жанр: Рисованный мультфильм
Продолжительность: 00:07:43
Год выпуска: 1988
Русские субтитры: нет
Режиссёр: Ефим Гамбург
Роли озвучивали: Ефим Шифрин
Описание: Большой город − это всегда пробки, толкотня, духота в общественном транспорте, проблемы с осадками, негативное влияние которое на скорость передвижения его жителей сказывается намного ощутимее, нежели в маленьком поселке. Героями нашего мультфильма станут сразу все, кто проживает в некоем мегаполисе, в один день отказавшиеся использовать какие-либо механические средства передвижения. Все они решили, что крылья доставят их на рабочее место, к родственникам или на природу быстрее, нежели транспорт. В этот момент высшее руководство города принимает решение предоставить всем его жителем разрешение на осуществление воздушных полетов, призванных упростить жизнь города, однако, крылья выросли не у всех, и власти снова были озадачены решением теперь уже этой проблемы, поскольку число людей, оставшихся без возможности покорять воздух, было немало…. (для взрослых)
Доп. информация: «Союзмультфильм»
Авторы сценария: О. Ольгин, М. Кривич
Художник-постановщик: Николай Кошкин
Композитор: П. Овсянников
Кинооператор: Александр Чеховский
Художники-аниматоры: Ю.Мещеряков, А.Букин, А.Панов, В.Вышегородцев
Звукооператор: Владимир Кутузов
Релиз группы:
Качество: WEBRip
Формат: AVI
Видео: 640x480 (1.33:1), 25 fps, XviD MPEG-4 ~2097 kbps avg, 0.27 bit/pixel
Аудио: 48 kHz, AC3 Dolby Digital, 2/0 (L,R) ch, ~192.00 kbps avg
Субтитры: нет

Подробные технические данные

Format : AVIFormat/Info : Audio Video InterleaveFile size : 127 MiBDuration : 7mn 43sOverall bit rate : 2 300 KbpsWriting application : VirtualDubModRus 1.5.10.2 (build 2542/release)Copyright : Rutracker.orgComment : WEBRip by dvdss
VideoID : 0Format : MPEG-4 VisualFormat profile : Advanced Simple@L5Format settings, BVOP : 2Format settings, QPel : NoFormat settings, GMC : No warppointsFormat settings, Matrix : CustomCodec ID : XVIDCodec ID/Hint : XviDDuration : 7mn 43sBit rate : 2 098 KbpsWidth : 640 pixelsHeight : 480 pixelsDisplay aspect ratio : 5:4Original display aspect ratio : 4:3Frame rate : 25.000 fpsColor space : YUVChroma subsampling : 4:2:0Bit depth : 8 bitsScan type : ProgressiveCompression mode : LossyBits/(Pixel*Frame) : 0.273Stream size : 116 MiB (91%)Writing library : XviD 65
AudioID : 1Format : AC-3Format/Info : Audio Coding 3Mode extension : CM (complete main)Format settings, Endianness : BigCodec ID : 2000Duration : 7mn 43sBit rate mode : ConstantBit rate : 192 KbpsChannel(s) : 2 channelsChannel positions : Front: L RSampling rate : 48.0 KHzBit depth : 16 bitsCompression mode : LossyStream size : 10.6 MiB (8%)Alignment : Aligned on interleavesInterleave, duration : 40 ms (1.00 video frame)Interleave, preload duration : 512 ms

Скриншоты

[Профиль] [ЛС]
Кто просматривает тему:

Форум Тема Автор Размер
BBC BBC: Экспедиция "Тигр" (В поисках последнего тигра) / Lost Land of the Tiger [серии 1-3 из 3] (Annie Backhouse, Susanna Handslip, Rowan Musgrave) [2010 г., Документальный, природа, флор... skorpionN 4.76 GB
Документальные HD EXперименты (Эксперименты) 24 - 35 серии [2013, Документальный, HDTV 1080i] TorrentFilm 19.05 GB
Документальные HD Stenus XX. Северная Осетия. Экспедиция (Александр Алексеев) [2015, документальный, HDTVRip 720p] TorrentFilm 3.14 GB
Viasat Nature Viasat Nature: BBC: Экспедиция в Новую Гвинею / Expedition New Guinea (Jonny Young) [серии 1-3 из 3] [2009 г., Документальный, природа, флора, фауна, HDTVRip 720p] skorpionN 4.53 GB
Adobe Photoshop Александр Заморин | Ретушёр 2015 - Экспертный уровень (2014) PCRec MOTrOSS 15.24 GB
Разная литература Васильченко А. - Тибетская экспедиция СС. Правда о тайном немецком проекте (Военные тайны XX века) [2009, DjVu/PDF, RUS] Garik014 43 MB
R.G.TorrentFilm Video Гибель "Курска". Следственный эксперимент [2015 г., Документальный, SATRip] Один 777 499 MB
Документальные HD Дилетант против Эксперта / Man v Expert / 1 сезон / 1 серия из (?)[2014, ТВ-Шоу, Познавательное, HDTVRip-AVC 1080p] TorrentFilm 1008 MB
Показать сообщения:    

Текущее время: Сегодня 00:39

Часовой пояс: GMT



Вы не можете начинать темы
Вы не можете отвечать на сообщения
Вы не можете редактировать свои сообщения
Вы не можете удалять свои сообщения
Вы не можете голосовать в опросах
Вы не можете прикреплять файлы к сообщениям
Вы не можете скачивать файлы