Экипаж (2016) BDRip 720p | Лицензия

 
Автор Сообщение

Russian Mafia ®

Пол:

Стаж: 1 год 8 месяцев

Сообщений: 4252



Награды: 10 (Подробнее)

Mega Seeder 2 (Количество: 1) Mega Seeder 3 (Количество: 1) Mega Seeder 1 (Количество: 1)
Торрент-статистика

Создавать темы 01-Июн-2016 11:16

[Цитировать]

Информация о фильме
Оригинальное название: Экипаж
Год выпуска: 2016
Жанр: Драма, приключения, триллер
Выпущено: Россия, Студия Тритэ
Продолжительность: 02:17:11
Язык: Русский
Озвучивание - Лицензия
Сохранены оригинальные чаптеры как на Blu-Ray.
Режиссер: Николай Лебедев (IV)
В ролях: Данила Козловский, Владимир Машков, Агне Грудите, Сергей Кемпо, Катерина Шпица, Сергей Шакуров, Сергей Газаров, Елена Яковлева, Алёна Бабенко, Сергей Романович, Ксения Георгиади, Ирина Лачина, Вячеслав Разбегаев, Владимир Яглыч, Василий Мищенко, Дмитрий Золотухин, Ирина Пегова, Иван Агапов, Ольга Литвинова, Ирина Низина
О фильме: История талантливого молодого летчика Алексея Гущина. Он не признает авторитетов, предпочитая поступать в соответствии с личным кодексом чести. За невыполнение абсурдного приказа его выгоняют из военной авиации, и только чудом он получает шанс летать на гражданских самолетах.
[/url
Файл
Качество: BDRip 720p
Видео: AVC, 1280x546 (2.35:1), 24 fps, 3909 Kbps
Аудио: AC3, 48.0 KHz, 6 ch, 640 Kbps

x264

x264 [info]: frame I:1475 Avg QP:16.06 size: 98306 PSNR Mean Y:47.38 U:50.19 V:50.89 Avg:48.15 Global:47.48
x264 [info]: frame P:48057 Avg QP:19.02 size: 37600 PSNR Mean Y:45.46 U:48.93 V:49.79 Avg:46.36 Global:45.52
x264 [info]: frame B:148011 Avg QP:21.11 size: 13954 PSNR Mean Y:44.36 U:48.06 V:49.32 Avg:45.30 Global:44.43

Инфо-файл

Формат : Matroska
Версия формата : Version 2
Размер файла : 4,36 Гбайт
Продолжительность : 2 ч. 17 м.
Общий поток : 4548 Кбит/сек
Дата кодирования : UTC 2016-06-01 10:43:02
Программа кодирования : mkvmerge v5.3.0 ('I could have danced') built on Feb 9 2012 10:38:07
Библиотека кодирования : libebml v1.2.3 + libmatroska v1.3.0
Attachment : Yes
Видео
Идентификатор : 1
Формат : AVC
Формат/Информация : Advanced Video Codec
Профиль формата : High@L4.1
Параметр CABAC формата : Да
Параметр ReFrames формата : 10 кадров
Идентификатор кодека : V_MPEG4/ISO/AVC
Продолжительность : 2 ч. 17 м.
Битрейт : 3909 Кбит/сек
Ширина : 1280 пикселей
Высота : 546 пикселей
Соотношение сторон : 2,35:1
Режим частоты кадров : Постоянный
Частота кадров : 24,000 кадра/сек
Цветовое пространство : YUV
Субдискретизация насыщенности : 4:2:0
Битовая глубина : 8 бит
Тип развёртки : Прогрессивная
Бит/(Пиксели*Кадры) : 0.233
Размер потока : 3,66 Гбайт (84%)
Библиотека кодирования : x264 core 146 r2538 121396c
Настройки программы : cabac=1 / ref=10 / deblock=1:-3:-3 / analyse=0x3:0x133 / me=umh / subme=11 / psy=1 / psy_rd=1.00:0.10 / mixed_ref=1 / me_range=32 / chroma_me=1 / trellis=2 / 8x8dct=1 / cqm=0 / deadzone=21,11 / fast_pskip=0 / chroma_qp_offset=-3 / threads=12 / lookahead_threads=2 / sliced_threads=0 / nr=0 / decimate=0 / interlaced=0 / bluray_compat=0 / constrained_intra=0 / bframes=8 / b_pyramid=2 / b_adapt=2 / b_bias=0 / direct=3 / weightb=1 / open_gop=0 / weightp=2 / keyint=240 / keyint_min=23 / scenecut=40 / intra_refresh=0 / rc=2pass / mbtree=0 / bitrate=3909 / ratetol=1.0 / qcomp=0.60 / qpmin=0 / qpmax=69 / qpstep=4 / cplxblur=20.0 / qblur=0.5 / ip_ratio=1.40 / pb_ratio=1.30 / aq=1:0.70
Default : Да
Forced : Нет
Аудио
Идентификатор : 2
Формат : AC-3
Формат/Информация : Audio Coding 3
Расширение режима : CM (complete main)
Параметр Endianness формата : Big
Идентификатор кодека : A_AC3
Продолжительность : 2 ч. 17 м.
Вид битрейта : Постоянный
Битрейт : 640 Кбит/сек
Каналы : 6 каналов
Расположение каналов : Front: L C R, Side: L R, LFE
Частота : 48,0 КГц
Битовая глубина : 16 бит
Метод сжатия : С потерями
Размер потока : 628 Мбайт (14%)
Default : Да
Forced : Нет
Меню
00:00:00.000 : :Chapter 01
00:05:00.000 : :Chapter 02
00:10:00.000 : :Chapter 03
00:15:00.000 : :Chapter 04
00:20:00.000 : :Chapter 05
00:25:00.000 : :Chapter 06
00:30:00.000 : :Chapter 07
00:35:00.000 : :Chapter 08
00:40:00.000 : :Chapter 09
00:45:00.000 : :Chapter 10
00:50:00.000 : :Chapter 11
00:55:00.000 : :Chapter 12
01:00:00.000 : :Chapter 13
01:05:00.000 : :Chapter 14
01:10:00.000 : :Chapter 15
01:15:00.000 : :Chapter 16
01:20:00.000 : :Chapter 17
01:25:00.000 : :Chapter 18
01:30:00.000 : :Chapter 19
01:35:00.000 : :Chapter 20
01:40:00.000 : :Chapter 21
01:45:00.000 : :Chapter 22
01:50:00.000 : :Chapter 23
01:55:00.000 : :Chapter 24
02:00:00.000 : :Chapter 25
02:05:00.000 : :Chapter 26
02:10:00.000 : :Chapter 27
02:15:00.000 : :Chapter 28
[Профиль] [ЛС]
Показать сообщения:    

Текущее время: Сегодня 22:37

Часовой пояс: GMT



Вы не можете начинать темы
Вы не можете отвечать на сообщения
Вы не можете редактировать свои сообщения
Вы не можете удалять свои сообщения
Вы не можете голосовать в опросах
Вы не можете прикреплять файлы к сообщениям
Вы не можете скачивать файлы