Экипаж (2016) BDRip 1080p от ExKinoRay | Лицензия

 
Автор Сообщение

Russian Mafia ®

Пол:

Стаж: 1 год 8 месяцев

Сообщений: 4257



Награды: 10 (Подробнее)

Mega Seeder 2 (Количество: 1) Top Releaser 4 (Количество: 1) Mega Seeder 3 (Количество: 1)
Торрент-статистика

Создавать темы 31-Май-2016 15:39

[Цитировать]

Информация о фильме
Оригинальное название: Экипаж
Год выпуска: 2016
Жанр: Драма, приключения, триллер
Выпущено: Россия, Студия Тритэ
Режиссер: Николай Лебедев (IV)
В ролях: Данила Козловский, Владимир Машков, Агне Грудите, Сергей Кемпо, Катерина Шпица, Сергей Шакуров, Сергей Газаров, Елена Яковлева, Алёна Бабенко, Сергей Романович, Ксения Георгиади, Ирина Лачина, Вячеслав Разбегаев, Владимир Яглыч, Василий Мищенко, Дмитрий Золотухин, Ирина Пегова, Иван Агапов, Ольга Литвинова, Ирина Низина
О фильме: История талантливого молодого летчика Алексея Гущина. Он не признает авторитетов, предпочитая поступать в соответствии с личным кодексом чести. За невыполнение абсурдного приказа его выгоняют из военной авиации, и только чудом он получает шанс летать на гражданских самолетах.

Файл
Качество: BDRip (1080p)
Видео: MPEG-4 AVC, 19500 Кбит/с, 1920x820, 24 кадр/с
Аудио: Русский (AC3, 6 ch, 640 Кбит/с), (DTS, 6 ch, 1509 Кбит/с)
Размер: 21.17 ГБ
Продолжительность: 02:17:11
Язык: Русский
Озвучивание - Лицензия
Сохранены оригинальные чаптеры как на Blu-Ray.

x264

x264 [info]: frame I:1290 Avg QP:15.52 size:233690
x264 [info]: frame P:45159 Avg QP:16.62 size:156391
x264 [info]: frame B:151094 Avg QP:18.74 size: 87053
x264 [info]: consecutive B-frames: 3.2% 2.9% 9.1% 18.3% 18.6% 36.4% 5.6% 1.3% 2.3% 2.2%
x264 [info]: mb I I16..4: 14.2% 77.3% 8.5%
x264 [info]: mb P I16..4: 3.9% 48.7% 2.3% P16..4: 16.3% 18.7% 5.7% 0.7% 0.0% skip: 3.6%
x264 [info]: mb B I16..4: 0.4% 18.8% 0.3% B16..8: 32.0% 20.9% 4.5% direct: 7.0% skip:16.1% L0:43.5% L1:42.3% BI:14.1%
x264 [info]: 8x8 transform intra:92.5% inter:63.7%
x264 [info]: coded y,uvDC,uvAC intra: 96.5% 93.7% 82.4% inter: 41.9% 49.4% 21.6%
x264 [info]: i16 v,h,dc,p: 9% 9% 32% 50%
x264 [info]: i8 v,h,dc,ddl,ddr,vr,hd,vl,hu: 7% 7% 19% 10% 12% 11% 11% 11% 12%
x264 [info]: i4 v,h,dc,ddl,ddr,vr,hd,vl,hu: 30% 10% 9% 7% 10% 10% 9% 7% 8%
x264 [info]: i8c dc,h,v,p: 57% 17% 13% 14%
x264 [info]: Weighted P-Frames: Y:5.6% UV:4.2%
x264 [info]: ref P L0: 47.0% 10.7% 23.7% 9.2% 8.1% 1.3% 0.1%
x264 [info]: ref B L0: 72.4% 19.9% 6.3% 1.4%
x264 [info]: ref B L1: 89.9% 10.1%
x264 [info]: kb/s:19941.38

Инфо-файл

Общее
Уникальный идентификатор : 210744328477347572290685150015166230629 (0x9E8BE19BB9B0D6C5B549FDD7979E3065)
Полное имя : D:ЗагрузкиEkipazh.2016.x264.BDRip.(1080p).ExKinoRay.mkv
Формат : Matroska
Версия формата : Version 2
Размер файла : 21,2 Гбайт
Продолжительность : 2 ч. 17 м.
Общий поток : 22,1 Мбит/сек
Название фильма : Экипаж.2016.Rip by: ollan
Дата кодирования : UTC 2016-05-31 14:37:02
Программа кодирования : mkvmerge v5.6.0 ('Kenya Kane') built on May 27 2012 16:44:04
Библиотека кодирования : libebml v1.2.3 + libmatroska v1.3.0
Attachements : Cover - Ekipazh.png
Видео
Идентификатор : 1
Формат : AVC
Формат/Информация : Advanced Video Codec
Профиль формата : High@L4.1
Параметр CABAC формата : Да
Параметр ReFrames формата : 5 кадров
Идентификатор кодека : V_MPEG4/ISO/AVC
Продолжительность : 2 ч. 17 м.
Битрейт : 19,5 Мбит/сек
Ширина : 1920 пикселей
Высота : 820 пикселей
Соотношение сторон : 2,35:1
Режим частоты кадров : Постоянный
Частота кадров : 24,000 кадра/сек
Цветовое пространство : YUV
Субдискретизация насыщенности : 4:2:0
Битовая глубина : 8 бит
Тип развёртки : Прогрессивная
Бит/(Пиксели*Кадры) : 0.516
Размер потока : 18,7 Гбайт (88%)
Библиотека кодирования : x264 core 146 r2538 121396c
Настройки программы : cabac=1 / ref=5 / deblock=1:-3:-3 / analyse=0x3:0x133 / me=umh / subme=11 / psy=1 / psy_rd=0.99:0.07 / mixed_ref=1 / me_range=48 / chroma_me=1 / trellis=2 / 8x8dct=1 / cqm=0 / deadzone=21,11 / fast_pskip=0 / chroma_qp_offset=-3 / threads=12 / lookahead_threads=2 / sliced_threads=0 / nr=0 / decimate=0 / interlaced=0 / bluray_compat=0 / constrained_intra=0 / bframes=9 / b_pyramid=2 / b_adapt=2 / b_bias=0 / direct=1 / weightb=1 / open_gop=0 / weightp=2 / keyint=240 / keyint_min=23 / scenecut=40 / intra_refresh=0 / rc_lookahead=40 / rc=crf / mbtree=0 / crf=18.0 / qcomp=0.60 / qpmin=0 / qpmax=69 / qpstep=4 / vbv_maxrate=50000 / vbv_bufsize=62500 / crf_max=0.0 / nal_hrd=none / filler=0 / ip_ratio=1.40 / pb_ratio=1.30 / aq=1:1.00
Язык : Russian
Default : Да
Forced : Нет
Аудио #1
Идентификатор : 2
Формат : AC-3
Формат/Информация : Audio Coding 3
Расширение режима : CM (complete main)
Параметр Endianness формата : Big
Идентификатор кодека : A_AC3
Продолжительность : 2 ч. 17 м.
Вид битрейта : Постоянный
Битрейт : 640 Кбит/сек
Каналы : 6 каналов
Расположение каналов : Front: L C R, Side: L R, LFE
Частота : 48,0 КГц
Частота кадров : 31,250 кадров/сек (1536 spf)
Метод сжатия : С потерями
Размер потока : 628 Мбайт (3%)
Язык : Russian
Default : Да
Forced : Нет
Аудио #2
Идентификатор : 3
Формат : DTS
Формат/Информация : Digital Theater Systems
Режим : 16
Параметр Endianness формата : Big
Идентификатор кодека : A_DTS
Продолжительность : 2 ч. 17 м.
Вид битрейта : Постоянный
Битрейт : 1509 Кбит/сек
Каналы : 6 каналов
Расположение каналов : Front: L C R, Side: L R, LFE
Частота : 48,0 КГц
Частота кадров : 93,750 кадра/сек (512 spf)
Битовая глубина : 16 бит
Метод сжатия : С потерями
Размер потока : 1,45 Гбайт (7%)
Язык : Russian
Default : Нет
Forced : Нет
Меню
00:00:00.000 : ru:Chapter 01
00:05:00.000 : ru:Chapter 02
00:10:00.000 : ru:Chapter 03
00:15:00.000 : ru:Chapter 04
00:20:00.000 : ru:Chapter 05
00:25:00.000 : ru:Chapter 06
00:30:00.000 : ru:Chapter 07
00:35:00.000 : ru:Chapter 08
00:40:00.000 : ru:Chapter 09
00:45:00.000 : ru:Chapter 10
00:50:00.000 : ru:Chapter 11
00:55:00.000 : ru:Chapter 12
01:00:00.000 : ru:Chapter 13
01:05:00.000 : ru:Chapter 14
01:10:00.000 : ru:Chapter 15
01:15:00.000 : ru:Chapter 16
01:20:00.000 : ru:Chapter 17
01:25:00.000 : ru:Chapter 18
01:30:00.000 : ru:Chapter 19
01:35:00.000 : ru:Chapter 20
01:40:00.000 : ru:Chapter 21
01:45:00.000 : ru:Chapter 22
01:50:00.000 : ru:Chapter 23
01:55:00.000 : ru:Chapter 24
02:00:00.000 : ru:Chapter 25
02:05:00.000 : ru:Chapter 26
02:10:00.000 : ru:Chapter 27
02:15:00.000 : ru:Chapter 28

Скриншоты



[Профиль] [ЛС]
Показать сообщения:    

Текущее время: Сегодня 00:20

Часовой пояс: GMT



Вы не можете начинать темы
Вы не можете отвечать на сообщения
Вы не можете редактировать свои сообщения
Вы не можете удалять свои сообщения
Вы не можете голосовать в опросах
Вы не можете прикреплять файлы к сообщениям
Вы не можете скачивать файлы