Экипаж (2016) BDRip-AVC | Лицензия

 
Автор Сообщение

Russian Mafia ®

Пол:

Стаж: 1 год 8 месяцев

Сообщений: 4257



Награды: 10 (Подробнее)

Top Releaser 3 (Количество: 1) Top Releaser 5 (Количество: 1) Top Releaser 2 (Количество: 1)
Торрент-статистика

Создавать темы 31-Май-2016 13:02

[Цитировать]

Информация о фильме
Название: Экипаж
Год выхода: 2016
Жанр: драма, приключения, триллер
Режиссер: Николай Лебедев
В ролях: Данила Козловский, Владимир Машков, Агне Грудите, Сергей Кемпо, Катерина Шпица, Сергей Шакуров, Сергей Газаров, Елена Яковлева, Алёна Бабенко, Сергей Романович
О фильме: История талантливого молодого летчика Алексея Гущина. Он не признает авторитетов, предпочитая поступать в соответствии с личным кодексом чести. За невыполнение абсурдного приказа его выгоняют из военной авиации, и только чудом он получает шанс летать на гражданских самолетах.
Гущин начинает свою летную жизнь сначала. Его наставник — командир воздушного судна — суровый и принципиальный Леонид Зинченко. Его коллега — второй пилот, неприступная красавица Александра. Отношения складываются непросто. Но на грани жизни и смерти, когда земля уходит из-под ног, вокруг — огонь и пепел и только в небе есть спасение, Гущин показывает все, на что он способен. Только вместе экипаж сможет совершить подвиг и спасти сотни жизней.

Страна: Россия / Студия Тритэ
Продолжительность: 02:17:10
Перевод: Оригинал [Лицензия]
Файл
Качество: BDRip-AVC
Формат: MKV
Видео: AVC, 2500 Kb/s, 1024x432
Звук: AC3, 448 Kb/s (6 ch)
Субтитры: нет

MediaInfo:

General
Unique ID : 97681954604888131518460021433889531107 (0x497CDC3222486834A04E646A844524E3)
Complete name : H:ДИСК 12. ФИЛЬМЫ СНГЭкипаж (2016)Ekipazh (2016) BDRip-AVC.mkv
Format : Matroska
Format version : Version 4 / Version 2
File size : 2.82 GiB
Duration : 2h 17mn
Overall bit rate : 2 945 Kbps
Writing application : XviD4PSP 7.0.170
Writing library : Lavf56.25.101
ENCODING_INFO : MPEGTS > MKV 576p / H264 > X264 VBR-2P 2500kbps Custom / DTS-HD MA > AC3 CBR 448kbps
Video
ID : 1
Format : AVC
Format/Info : Advanced Video Codec
Format profile : High@L4.1
Format settings, CABAC : Yes
Format settings, ReFrames : 8 frames
Codec ID : V_MPEG4/ISO/AVC
Duration : 2h 17mn
Bit rate : 2 500 Kbps
Width : 1 024 pixels
Height : 432 pixels
Display aspect ratio : 2.40:1
Frame rate mode : Constant
Frame rate : 24.000 fps
Color space : YUV
Chroma subsampling : 4:2:0
Bit depth : 8 bits
Scan type : Progressive
Bits/(Pixel*Frame) : 0.235
Stream size : 2.34 GiB (83%)
Writing library : x264 core 148 r2597M e86f3a1
Encoding settings : cabac=1 / ref=8 / deblock=1:-3:-3 / analyse=0x3:0x133 / me=umh / subme=8 / psy=1 / psy_rd=1.00:0.20 / mixed_ref=1 / me_range=16 / chroma_me=1 / trellis=2 / 8x8dct=1 / cqm=0 / deadzone=21,11 / fast_pskip=1 / chroma_qp_offset=-3 / threads=10 / lookahead_threads=3 / sliced_threads=0 / nr=0 / decimate=1 / interlaced=0 / bluray_compat=0 / constrained_intra=0 / bframes=8 / b_pyramid=2 / b_adapt=2 / b_bias=0 / direct=3 / weightb=1 / open_gop=0 / weightp=2 / keyint=240 / keyint_min=24 / scenecut=40 / intra_refresh=0 / rc_lookahead=40 / rc=2pass / mbtree=1 / bitrate=2500 / ratetol=1.0 / qcomp=0.60 / qpmin=0 / qpmax=69 / qpstep=4 / cplxblur=20.0 / qblur=0.5 / ip_ratio=1.40 / aq=1:1.00
Default : Yes
Forced : No
Audio
ID : 2
Format : AC-3
Format/Info : Audio Coding 3
Mode extension : CM (complete main)
Format settings, Endianness : Big
Codec ID : A_AC3
Duration : 2h 17mn
Bit rate mode : Constant
Bit rate : 448 Kbps
Channel(s) : 6 channels
Channel positions : Front: L C R, Side: L R, LFE
Sampling rate : 48.0 KHz
Bit depth : 32 bits
Compression mode : Lossy
Delay relative to video : 27ms
Stream size : 440 MiB (15%)
Language : Russian
Default : Yes
Forced : No

Скриншоты

[Профиль] [ЛС]
Показать сообщения:    

Текущее время: Сегодня 16:54

Часовой пояс: GMT



Вы не можете начинать темы
Вы не можете отвечать на сообщения
Вы не можете редактировать свои сообщения
Вы не можете удалять свои сообщения
Вы не можете голосовать в опросах
Вы не можете прикреплять файлы к сообщениям
Вы не можете скачивать файлы