Экзорцизм: пещера шамана / Toema: munyeokul (2015) WEB-DLRip | L2

 
Автор Сообщение

ODESSA ®

Пол:

Стаж: 1 год 7 месяцев

Сообщений: 420

Откуда: ODESSA



Награды: Нет

Торрент-статистика

Создавать темы 23-Июн-2016 06:43

[Цитировать]

Экзорцизм: пещера шамана / The Chosen: Forbidden Cave / Toema: munyeokul
Страна: Южная Корея
Год выпуска: 2015
Жанр: ужасы, триллер
Продолжительность: 01:45:48
Режиссер: Ким Хви
В ролях: Ким Сон-гюн, Ю Сон, Чхон Хо-джин, Чха Э-рён, Ким Хэ-сон, Ли Гю-джон
Описание: Гым-джу замечает, что последнее время с ней творится что-то странное и необъяснимое. Она обращается за помощью к Джин-мёну, психологу и экзорцисту. Мужчина и его помощник Джи-гван вводят пациентку в транс и выясняют, что в теле Гым-джу обитает что-то ещё...

Перевод: Любительский (двухголосый, закадровый) | den904 & DeadSno
Субтитры: нет-Качество: WEB-DLRip
Формат: АVI
Видео кодек: XviD
Аудио кодек: МР3
Видео: 704x320 (2.25:1), 24.000 fps, XviD ~849 kbps avg, 0.157 bit/pixel
Аудио: 48.0 kHz, MPEG Layer 3, 2 ch, ~128.00 kbps avg
Дата премьеры (мир): 24 июля 2015

Media Info

General
Полное имя : Экзорцизм пещера шамана (ужасы, триллер 2015г).avi
Формат : AVI
Формат/Информация : Audio Video Interleave
Размер файла : 746 Мбайт
Продолжительность : 1 ч. 45 м.
Общий поток : 986 Кбит/сек
Программа кодирования : VirtualDubMod 1.5.10.2 (build 2540/release)
Библиотека кодирования : VirtualDubMod build 2540/release
Видео
Идентификатор : 0
Формат : MPEG-4 Visual
Профиль формата : Advanced Simple@L5
Параметр BVOP формата : 1
Параметр QPel формата : Нет
Параметр GMC формата : Без точки перехода
Параметр матрицы формата : Выборочная
Идентификатор кодека : XVID
Идентификатор кодека/Подсказка : XviD
Продолжительность : 1 ч. 45 м.
Битрейт : 849 Кбит/сек
Ширина : 704 пикселя
Высота : 320 пикселей
Соотношение сторон : 2,2:1
Частота кадров : 24,000 кадра/сек
Цветовое пространство : YUV
Субдискретизация насыщенности : 4:2:0
Битовая глубина : 8 бит
Тип развёртки : Прогрессивная
Метод сжатия : С потерями
Бит/(Пиксели*Кадры) : 0.157
Размер потока : 642 Мбайт (86%)
Библиотека кодирования : XviD 1.2.0.dev47 (UTC 2006-11-01)
Аудио
Идентификатор : 1
Формат : MPEG Audio
Версия формата : Version 1
Профиль формата : Layer 3
Идентификатор кодека : 55
Идентификатор кодека/Подсказка : MP3
Продолжительность : 1 ч. 45 м.
Вид битрейта : Постоянный
Битрейт : 128 Кбит/сек
Каналы : 2 канала
Частота : 48,0 КГц
Метод сжатия : С потерями
Размер потока : 96,9 Мбайт (13%)
Выравнивание : Соединение по промежуткам
Продолжительность промежутка : 42 мс. (1,00 видеокадр)
Время предзагрузки промежутка : 504 мс.
Библиотека кодирования : LAME3.97
Настройки программы : -m s -V 4 -q 2 -lowpass 17 -b 128

Скриншоты

[Профиль] [ЛС]
Показать сообщения:    

Текущее время: Сегодня 20:24

Часовой пояс: GMT



Вы не можете начинать темы
Вы не можете отвечать на сообщения
Вы не можете редактировать свои сообщения
Вы не можете удалять свои сообщения
Вы не можете голосовать в опросах
Вы не можете прикреплять файлы к сообщениям
Вы не можете скачивать файлы