Экзорцизм: пещера шамана / Toema: munyeokul (2015) WEB-DLRip | L2

 
Автор Сообщение

достали все ®

Пол:

Стаж: 1 год 8 месяцев

Сообщений: 6613



Награды: 12 (Подробнее)

Mega Seeder 4 (Количество: 1) Top Releaser 3 (Количество: 1) Mega Seeder 1 (Количество: 1)
Торрент-статистика

Создавать темы 23-Июн-2016 04:45

[Цитировать]

Экзорцизм: пещера шамана / The Chosen: Forbidden Cave / Toema: munyeokul
Страна: Южная Корея
Год выпуска: 2015
Жанр: ужасы, триллер
Продолжительность: 01:45:48
Режиссер: Ким Хви
В ролях: Ким Сон-гюн, Ю Сон, Чхон Хо-джин, Чха Э-рён, Ким Хэ-сон, Ли Гю-джон
Описание: Гым-джу замечает, что последнее время с ней творится что-то странное и необъяснимое. Она обращается за помощью к Джин-мёну, психологу и экзорцисту. Мужчина и его помощник Джи-гван вводят пациентку в транс и выясняют, что в теле Гым-джу обитает что-то ещё...

Перевод: Любительский (двухголосый, закадровый) | den904 & DeadSno
Субтитры: нет-Качество: WEB-DLRip
Формат: АVI
Видео кодек: XviD
Аудио кодек: АС3
Видео: 720x320 (2.25:1), 24.000 fps, XviD ~1 728 kbps avg, 0.312 bit/pixel
Аудио: 48.0 kHz, AC3 Dolby Digital, 2/0 (L,R) ch, ~192 kbps
Дата премьеры (мир): 24 июля 2015

Media Info

General
Полное имя : Экзорцизм пещера шамана (ужасы, триллер, драма 2015г).avi
Формат : AVI
Формат/Информация : Audio Video Interleave
Размер файла : 1,42 Гбайт
Продолжительность : 1 ч. 45 м.
Общий поток : 1925 Кбит/сек
Программа кодирования : VirtualDubModRus 1.5.10.2 (build 2542/release)
Библиотека кодирования : VirtualDubMod build 2542/release
Видео
Идентификатор : 0
Формат : MPEG-4 Visual
Профиль формата : Advanced Simple@L5
Параметр BVOP формата : 1
Параметр QPel формата : Нет
Параметр GMC формата : Без точки перехода
Параметр матрицы формата : Выборочная
Идентификатор кодека : XVID
Идентификатор кодека/Подсказка : XviD
Продолжительность : 1 ч. 45 м.
Битрейт : 1728 Кбит/сек
Ширина : 720 пикселей
Высота : 320 пикселей
Соотношение сторон : 2,25:1
Частота кадров : 24,000 кадра/сек
Цветовое пространство : YUV
Субдискретизация насыщенности : 4:2:0
Битовая глубина : 8 бит
Тип развёртки : Прогрессивная
Метод сжатия : С потерями
Бит/(Пиксели*Кадры) : 0.312
Размер потока : 1,28 Гбайт (90%)
Библиотека кодирования : XviD 64
Аудио
Идентификатор : 1
Формат : AC-3
Формат/Информация : Audio Coding 3
Расширение режима : CM (complete main)
Параметр Endianness формата : Big
Идентификатор кодека : 2000
Продолжительность : 1 ч. 45 м.
Вид битрейта : Постоянный
Битрейт : 192 Кбит/сек
Каналы : 2 канала
Расположение каналов : Front: L R
Частота : 48,0 КГц
Частота кадров : 31,250 кадров/сек (1536 spf)
Битовая глубина : 16 бит
Метод сжатия : С потерями
Размер потока : 145 Мбайт (10%)
Выравнивание : Соединение по промежуткам
Продолжительность промежутка : 160 мс. (3,84 видеокадра)
Время предзагрузки промежутка : 640 мс.

Скриншоты

[Профиль] [ЛС]
Показать сообщения:    

Текущее время: Сегодня 00:38

Часовой пояс: GMT



Вы не можете начинать темы
Вы не можете отвечать на сообщения
Вы не можете редактировать свои сообщения
Вы не можете удалять свои сообщения
Вы не можете голосовать в опросах
Вы не можете прикреплять файлы к сообщениям
Вы не можете скачивать файлы