Эйр Америка / Air America (1990) BDRemux [1080p]

 
Автор Сообщение

sergej644 ®

Пол:

Стаж: 4 года 11 месяцев

Сообщений: 6035

Откуда: Soviet Union



Награды: Нет

Торрент-статистика

Создавать темы 29-Окт-2014 07:40

[Цитировать]

-Эйр Америка / Air America (1990) BDRemux-«Anything. Anywhere. Anytime»- Год выпуска: 1990
Жанр: Боевик, Комедия
Производство: США / Carolco Pictures Inc.
Описание фильма:
Кто сказал что Вьетнам — это страшно? Может быть для кого-то, но не для них! Контрабанда, ЦРУ, приключения — что может быть лучше для двух бесшабашных пилотов! Они готовы доставить что угодно, кого угодно — им все нипочем, лишь бы платили.
Режиссер: Роджер Споттисвуд
Актеры: Мэл Гибсон, Роберт Дауни мл., Нэнси Трэвис, Кен Дженкинс, Дэвид Маршалл Грант, Лейн Смит, Арт ЛаФлер, Нед Айзенберг, Маршалл Белл, Дэвид Бауи, Берт Куок, Тим Томерсон, Харви Джейсон, Эрни Лайвли, Берк Байрнс, Грег Кин, Майкл Дудикофф, Синяи Пленжпанит, Яни Трэмод, Васун Уттамаёдин, Джон Ладальски
Продолжительность: 01:52:36
Качество видео: BDRemux
Перевод: Многоголосый закадровый, Авторский одноголосый, закадровый (х3)
Язык субтитров: Русский, Английский
Вид субтитров: Вшитые отключаемые

Видеокодек: MPEG-4 AVC/H.264
Битрейт видео: ~18480 kbps
Размер кадра: 1920 x 1080
Аудио 1: Русский, AC3 5.1, 448 kbps, 48 kHz (MVO, Амальгама)
Аудио 2: Русский, DTS-HD MA 7.1, 5335 kbps, 48 kHz, 24 bit (AVO, Г.Либергал)
Аудио 3: Русский, DTS-HD MA 7.1, 5338 kbps, 48 kHz, 24 bit (AVO, С.Визгунов)
Аудио 4: Русский, DTS-HD MA 7.1, 5357 kbps, 48 kHz, 24 bit (AVO, А.Гаврилов)
Аудио 5: Английский, DTS-HD MA 7.1, 5323 kbps, 48 kHz, 24 bit (Оригинал)
Аудио 6: Английский, AC3 2.0, 224 kbps, 48 kHz (Комментарий)
Сэмпл: Ссылка

Из книги «3500 кинорецензий»

Приключенческая драма с элементами комедии
В 1969 году пилот Билли Ковингтон нанялся на работу в авиакомпанию «Эйр Америка», перевозящую грузы в Лаосе. Но его напарник Джин Райэк дал понять, что эта авиакомпания замешана в транспортировке оружия и опиума, поэтому, так или иначе, причастна к «грязной войне» во Вьетнаме. Ждавший лёгкой работы и больших денег, беззаботный парень Билли Ковингтон постепенно сам убедился, что действительно влип в опасное и постыдное дело, хотя природное чувство правды не позволило ему остаться равнодушным ко всему происходящему в небе и на земле Лаоса.
Интерес зрителей к данному фильму был в какой-то степени предопределён темой Вьетнама, пусть она затронута по касательной. И, конечно, успех в прокате обеспечил картине «Эйр-Америка» популярный актёр Мел Гибсон, снявшийся в очередной роли бунтаря-романтика, который любыми способами отстаивает справедливость и честность. Впрочем, и режиссёр Роджер Споттисвуд, ранее ничем особо не блиставший (его политический боевик «Под огнём» о Сальвадоре оказался чужд американским зрителям, а несколько триллеров и комедий постигла та же неудачная участь), на рубеже 80—90-х годов вдруг научился учитывать запросы публики («Стреляй на поражение», «Тёрнер и Хуч»). Кто ж предполагал, что уже на исходе десятилетия этот постановщик, развивая приключенческо-комиксовую стилистику, добьётся своего максимального кассового успеха, сняв на той же южно-азиатской натуре ленту «Завтра не умрёт никогда» — очередную серию «бондианы».

MediaInfo:

Общее
Уникальный идентификатор : 208444006706877752495794755221096792989 (0x9CD0DAFD19528C5CA4F5AC262A38839D)
Полное имя : D:\Films\Air.America.1990.BDRemux.1080p.mkv
Формат : Matroska
Версия формата : Version 2
Размер файла : 31,9 Гбайт
Продолжительность : 1 ч. 52 м.
Режим общего битрейта : Переменный
Общий поток : 40,5 Мбит/сек
Дата кодирования : UTC 2014-10-16 01:47:05
Программа кодирования : mkvmerge v5.2.0 ('I can't explain') built on Dec 18 2011 18:12:03
Библиотека кодирования : libebml v1.2.3 + libmatroska v1.3.0
Видео
Идентификатор : 1
Формат : AVC
Формат/Информация : Advanced Video Codec
Профиль формата : [url=mailto:High@L4.1]High@L4.1[/url]
Параметр CABAC формата : Да
Параметр ReFrames формата : 4 кадра
Идентификатор кодека : V_MPEG4/ISO/AVC
Продолжительность : 1 ч. 52 м.
Вид битрейта : Переменный
Максимальный битрейт : 37,0 Мбит/сек
Ширина : 1920 пикселей
Высота : 1080 пикселей
Соотношение сторон : 16:9
Режим частоты кадров : Постоянный
Частота кадров : 23,976 кадра/сек
Цветовое пространство : YUV
Субдискретизация насыщенности : 4:2:0
Битовая глубина : 8 бит
Тип развёртки : Прогрессивная
Язык : English
Default : Да
Forced : Нет
Основные цвета : BT.709
Характеристики трансфера : BT.709
Коэффициенты матрицы : BT.709
Аудио #1
Идентификатор : 2
Формат : AC-3
Формат/Информация : Audio Coding 3
Расширение режима : CM (complete main)
Параметр Endianness формата : Big
Идентификатор кодека : A_AC3
Продолжительность : 1 ч. 52 м.
Вид битрейта : Постоянный
Битрейт : 448 Кбит/сек
Каналы : 6 каналов
Расположение каналов : Front: L C R, Side: L R, LFE
Частота : 48,0 КГц
Битовая глубина : 16 бит
Метод сжатия : С потерями
Размер потока : 361 Мбайт (1%)
Заголовок : MVO, Амальгама
Язык : Russian
Default : Да
Forced : Нет
Аудио #2
Идентификатор : 3
Формат : DTS
Формат/Информация : Digital Theater Systems
Профиль формата : MA / Core
Режим : 16
Параметр Endianness формата : Big
Идентификатор кодека : A_DTS
Продолжительность : 1 ч. 52 м.
Вид битрейта : Переменный
Битрейт : Неизвестно / 1509 Кбит/сек
Каналы : 8 каналов / 6 каналов
Расположение каналов : Front: L C R, Side: L R, Back: L R, LFE / Front: L C R, Side: L R, LFE
Частота : 48,0 КГц
Битовая глубина : 24 бит
Метод сжатия : Без потерь / Lossy
Заголовок : AVO, Г.Либергал
Язык : Russian
Default : Нет
Forced : Нет
Аудио #3
Идентификатор : 4
Формат : DTS
Формат/Информация : Digital Theater Systems
Профиль формата : MA / Core
Режим : 16
Параметр Endianness формата : Big
Идентификатор кодека : A_DTS
Продолжительность : 1 ч. 52 м.
Вид битрейта : Переменный
Битрейт : Неизвестно / 1509 Кбит/сек
Каналы : 8 каналов / 6 каналов
Расположение каналов : Front: L C R, Side: L R, Back: L R, LFE / Front: L C R, Side: L R, LFE
Частота : 48,0 КГц
Битовая глубина : 24 бит
Метод сжатия : Без потерь / Lossy
Заголовок : AVO, С.Визгунов
Язык : Russian
Default : Нет
Forced : Нет
Аудио #4
Идентификатор : 5
Формат : DTS
Формат/Информация : Digital Theater Systems
Профиль формата : MA / Core
Режим : 16
Параметр Endianness формата : Big
Идентификатор кодека : A_DTS
Продолжительность : 1 ч. 52 м.
Вид битрейта : Переменный
Битрейт : Неизвестно / 1509 Кбит/сек
Каналы : 8 каналов / 6 каналов
Расположение каналов : Front: L C R, Side: L R, Back: L R, LFE / Front: L C R, Side: L R, LFE
Частота : 48,0 КГц
Битовая глубина : 24 бит
Метод сжатия : Без потерь / Lossy
Заголовок : AVO, А.Гаврилов
Язык : Russian
Default : Нет
Forced : Нет
Аудио #5
Идентификатор : 6
Формат : DTS
Формат/Информация : Digital Theater Systems
Профиль формата : MA / Core
Режим : 16
Параметр Endianness формата : Big
Идентификатор кодека : A_DTS
Продолжительность : 1 ч. 52 м.
Вид битрейта : Переменный
Битрейт : Неизвестно / 1509 Кбит/сек
Каналы : 8 каналов / 6 каналов
Расположение каналов : Front: L C R, Side: L R, Back: L R, LFE / Front: L C R, Side: L R, LFE
Частота : 48,0 КГц
Битовая глубина : 24 бит
Метод сжатия : Без потерь / Lossy
Заголовок : Original
Язык : English
Default : Нет
Forced : Нет
Аудио #6
Идентификатор : 7
Формат : AC-3
Формат/Информация : Audio Coding 3
Расширение режима : CM (complete main)
Параметр Endianness формата : Big
Идентификатор кодека : A_AC3
Продолжительность : 1 ч. 52 м.
Вид битрейта : Постоянный
Битрейт : 224 Кбит/сек
Каналы : 2 канала
Расположение каналов : Front: L R
Частота : 48,0 КГц
Битовая глубина : 16 бит
Метод сжатия : С потерями
Размер потока : 180 Мбайт (1%)
Заголовок : Commentary
Язык : English
Default : Нет
Forced : Нет
Текст #1
Идентификатор : 8
Формат : UTF-8
Идентификатор кодека : S_TEXT/UTF8
Идентификатор кодека/Информация : UTF-8 Plain Text
Язык : Russian
Default : Нет
Forced : Нет
Текст #2
Идентификатор : 9
Формат : UTF-8
Идентификатор кодека : S_TEXT/UTF8
Идентификатор кодека/Информация : UTF-8 Plain Text
Язык : English
Default : Нет
Forced : Нет
Меню
00:00:00.000 : en:Chapter 01
00:06:57.166 : en:Chapter 02
00:11:12.546 : en:Chapter 03
00:19:28.167 : en:Chapter 04
00:24:22.711 : en:Chapter 05
00:32:07.508 : en:Chapter 06
00:38:01.195 : en:Chapter 07
00:42:56.282 : en:Chapter 08
00:48:13.557 : en:Chapter 09
00:53:57.943 : en:Chapter 10
00:57:43.001 : en:Chapter 11
01:02:44.844 : en:Chapter 12
01:07:41.223 : en:Chapter 13
01:14:13.115 : en:Chapter 14
01:23:29.504 : en:Chapter 15
01:35:35.020 : en:Chapter 16
-Скриншоты: -Время раздачи: С 8:00 до 22:00 до 5 скачавших
[Профиль] [ЛС]
Кто просматривает тему:

Показать сообщения:    

Текущее время: Сегодня 07:04

Часовой пояс: GMT



Вы не можете начинать темы
Вы не можете отвечать на сообщения
Вы не можете редактировать свои сообщения
Вы не можете удалять свои сообщения
Вы не можете голосовать в опросах
Вы не можете прикреплять файлы к сообщениям
Вы не можете скачивать файлы