Эд Вуд / Ed Wood (1994) BDRip 1080p | Р2, Р, А

 
Автор Сообщение

Russian Mafia ®

Пол:

Стаж: 1 год 8 месяцев

Сообщений: 4257



Награды: 10 (Подробнее)

Top Releaser 4 (Количество: 1) Mega Seeder 1 (Количество: 1) Mega Seeder 2 (Количество: 1)
Торрент-статистика

Создавать темы 17-Авг-2016 12:07

[Цитировать]

Эд Вуд / Ed Wood
Страна: США
Производство: Touchstone Pictures
Год выпуска: 1994
Жанр: драма, комедия, биография
Продолжительность: 02:06:33
Режиссер: Тим Бёртон
Авторы сценария: Скотт Александер, Ларри Карацевски, Рудольф Грэй
В ролях: Джонни Депп, Мартин Ландау, Сара Джессика Паркер, Патриция Аркетт, Джеффри Джонс, Билл Мюррей, Майк Старр, Г.Д. Спрэдлин
Описание: Фильм рассказывает истинную историю странной и пёстрой жизни самой одиозной фигуры американского кино — Эда Вуда, признанного худшим режиссёром за всю историю Голливуда..!

Перевод: Профессиональный (двухголосый) | Видеосервис + Профессиональный (многоголосый) | ОРТ + Авторский (одноголосый) | «Лектор»
Субтитры: русские, английские (2 вида + Commentary), португальские, испанские (full + Commentary), французские (full + Commentary)-Качество: BDRip 1080p
Формат: MKV
Видео кодек: AVC
Аудио кодек: DTS | АС3
Видео: 1920x1040 (16:9), 23.976 fps, MPEG-4 AVC ~20.0 Мbps avg
Аудио №1: 48 kHz, Digital Theater Systems, 3/2 (L,C,R,l,r) + LFE ch, ~1510 kbps | DVO / Видеосервис
Аудио №2: 48 kHz, AC3 Dolby Digital, 2/0 (L,R) ch, ~192.00 kbps | MVO / ОРТ
Аудио №3: 48 kHz, AC3 Dolby Digital, 3/2 (L,C,R,l,r) + LFE ch, ~384 kbps | AVO / Валерий «Лектор» Огородников
Аудио №4: 48 kHz, Digital Theater Systems, 3/2 (L,C,R,l,r) + LFE ch, ~1510 kbps | ENG
Формат субтитров: UTF-8 Plain Text
Бюджет: $18 000 000
Дата премьеры (мир): 23 сентября 1994-
Премия Оскар, 1995 год
» Лучшая мужская роль второго плана (Мартин Ландау)
» Лучший грим
Релиз от:

Media Info

General
Complete name : Ed.Wood.1994.1080p.BluRay.3xRus.Eng.HDCLUB.mkv
Format : Matroska
File size : 21.3 GiB
Duration : 2h 6mn
Overall bit rate : 24.0 Mbps
Encoded date : UTC 2012-11-15 19:56:23
Writing application : mkvmerge v4.9.1 ('Ich will') сборка от Jul 11 2011 23:53:15
Writing library : libebml v1.2.1 + libmatroska v1.1.1
Video
ID : 1
Format : AVC
Format/Info : Advanced Video Codec
Format profile : High@L4.1
Format settings, CABAC : Yes
Format settings, ReFrames : 4 frames
Muxing mode : Container profile=Unknown@4.1
Codec ID : V_MPEG4/ISO/AVC
Duration : 2h 6mn
Bit rate : 20.0 Mbps
Width : 1 920 pixels
Height : 1 040 pixels
Display aspect ratio : 16:9
Frame rate : 23.976 fps
Color space : YUV
Chroma subsampling : 4:2:0
Bit depth : 8 bits
Scan type : Progressive
Bits/(Pixel*Frame) : 0.417
Stream size : 17.7 GiB (83%)
Title : Ed Wood 1994 1080p BluRay DTS x264-RDK123
Writing library : x264 core 125 r2208 d9d2288
Encoding settings : cabac=1 / ref=4 / deblock=1:-3:-3 / analyse=0x3:0x113 / me=tesa / subme=10 / psy=1 / psy_rd=1.00:0.00 / mixed_ref=1 / me_range=16 / chroma_me=1 / trellis=2 / 8x8dct=1 / cqm=0 / deadzone=21,11 / fast_pskip=0 / chroma_qp_offset=-2 / threads=6 / lookahead_threads=1 / sliced_threads=0 / nr=0 / decimate=0 / interlaced=0 / bluray_compat=0 / constrained_intra=0 / bframes=7 / b_pyramid=2 / b_adapt=1 / b_bias=0 / direct=3 / weightb=1 / open_gop=0 / weightp=2 / keyint=250 / keyint_min=23 / scenecut=40 / intra_refresh=0 / rc=crf / mbtree=0 / crf=18.0 / qcomp=0.60 / qpmin=0 / qpmax=69 / qpstep=4 / ip_ratio=1.40 / pb_ratio=1.30 / aq=1:0.80
Language : English
Audio #1
ID : 2
Format : DTS
Format/Info : Digital Theater Systems
Codec ID : A_DTS
Duration : 2h 6mn
Bit rate mode : Constant
Bit rate : 1 510 Kbps
Channel(s) : 6 channels
Channel positions : Front: L C R, Side: L R, LFE
Sampling rate : 48.0 KHz
Bit depth : 24 bits
Stream size : 1.33 GiB (6%)
Title : DVO [Видеосервис]
Language : Russian
Audio #2
ID : 3
Format : AC-3
Format/Info : Audio Coding 3
Mode extension : CM (complete main)
Codec ID : A_AC3
Duration : 2h 6mn
Bit rate mode : Constant
Bit rate : 192 Kbps
Channel(s) : 2 channels
Channel positions : Front: L R
Sampling rate : 48.0 KHz
Bit depth : 16 bits
Stream size : 174 MiB (1%)
Title : MVO [ОРТ]
Language : Russian
Audio #3
ID : 4
Format : AC-3
Format/Info : Audio Coding 3
Mode extension : CM (complete main)
Codec ID : A_AC3
Duration : 2h 6mn
Bit rate mode : Constant
Bit rate : 384 Kbps
Channel(s) : 6 channels
Channel positions : Front: L C R, Side: L R, LFE
Sampling rate : 48.0 KHz
Bit depth : 16 bits
Stream size : 348 MiB (2%)
Title : AVO [Валерий "Лектор" Огородников]
Language : Russian
Audio #4
ID : 5
Format : DTS
Format/Info : Digital Theater Systems
Codec ID : A_DTS
Duration : 2h 6mn
Bit rate mode : Constant
Bit rate : 1 510 Kbps
Channel(s) : 6 channels
Channel positions : Front: L C R, Side: L R, LFE
Sampling rate : 48.0 KHz
Bit depth : 24 bits
Stream size : 1.33 GiB (6%)
Language : English
Text #1
ID : 6
Format : UTF-8
Codec ID : S_TEXT/UTF8
Codec ID/Info : UTF-8 Plain Text
Language : Russian
Text #2
ID : 7
Format : UTF-8
Codec ID : S_TEXT/UTF8
Codec ID/Info : UTF-8 Plain Text
Title : SDH from Blu-Ray
Language : English
Text #3
ID : 8
Format : UTF-8
Codec ID : S_TEXT/UTF8
Codec ID/Info : UTF-8 Plain Text
Title : from DVD
Language : English
Text #4
ID : 9
Format : UTF-8
Codec ID : S_TEXT/UTF8
Codec ID/Info : UTF-8 Plain Text
Language : Spanish
Text #5
ID : 10
Format : UTF-8
Codec ID : S_TEXT/UTF8
Codec ID/Info : UTF-8 Plain Text
Language : French
Text #6
ID : 11
Format : UTF-8
Codec ID : S_TEXT/UTF8
Codec ID/Info : UTF-8 Plain Text
Language : Portuguese
Text #7
ID : 12
Format : UTF-8
Codec ID : S_TEXT/UTF8
Codec ID/Info : UTF-8 Plain Text
Title : Commentary
Language : English
Text #8
ID : 13
Format : UTF-8
Codec ID : S_TEXT/UTF8
Codec ID/Info : UTF-8 Plain Text
Title : Commentary
Language : Spanish
Text #9
ID : 14
Format : UTF-8
Codec ID : S_TEXT/UTF8
Codec ID/Info : UTF-8 Plain Text
Title : Commentary
Language : French
Menu
00:00:00.000 : en:Chapter 1
00:05:03.011 : en:Chapter 2
00:08:05.068 : en:Chapter 3
00:14:03.718 : en:Chapter 4
00:19:56.987 : en:Chapter 5
00:23:12.683 : en:Chapter 6
00:25:56.930 : en:Chapter 7
00:29:24.596 : en:Chapter 8
00:36:47.956 : en:Chapter 9
00:41:06.923 : en:Chapter 10
00:43:43.454 : en:Chapter 11
00:51:08.190 : en:Chapter 12
00:55:14.686 : en:Chapter 13
00:59:36.114 : en:Chapter 14
01:03:05.699 : en:Chapter 15
01:10:44.991 : en:Chapter 16
01:13:42.752 : en:Chapter 17
01:17:01.283 : en:Chapter 18
01:24:41.034 : en:Chapter 19
01:28:17.834 : en:Chapter 20
01:30:39.059 : en:Chapter 21
01:35:22.133 : en:Chapter 22
01:39:48.024 : en:Chapter 23
01:42:11.208 : en:Chapter 24
01:48:48.981 : en:Chapter 25
01:52:14.019 : en:Chapter 26
01:55:19.663 : en:Chapter 27
02:00:05.448 : en:Chapter 28

Скриншоты

[Профиль] [ЛС]
Кто просматривает тему:

Показать сообщения:    

Текущее время: Сегодня 07:13

Часовой пояс: GMT



Вы не можете начинать темы
Вы не можете отвечать на сообщения
Вы не можете редактировать свои сообщения
Вы не можете удалять свои сообщения
Вы не можете голосовать в опросах
Вы не можете прикреплять файлы к сообщениям
Вы не можете скачивать файлы