Эдди «Орел» / Eddie the Eagle (2016) BDRemux 1080p от ExKinoRay | Лицензия

 
Автор Сообщение

Russian Mafia ®

Пол:

Стаж: 1 год 8 месяцев

Сообщений: 4256



Награды: 10 (Подробнее)

Top Releaser 2 (Количество: 1) Top Releaser 5 (Количество: 1) Top Releaser 3 (Количество: 1)
Торрент-статистика

Создавать темы 18-Авг-2016 14:51

[Цитировать]

Информация о фильме
Название: Эдди «Орел»
Оригинальное название: Eddie the Eagle
Год выхода: 2016
Жанр: Драма, комедия, биография, спорт
Режиссер: Декстер Флетчер
В ролях: Тэрон Эджертон, Хью Джекман, Кристофер Уокен, Джо Хартли, Том Костелло, Кит Аллен, Дикон Толсон, Джек Костелло, Марк Бентон, Тим МакИннерни, Эдвин Эндре, Мэдс Сьёгард Петтерсен, Марк Бенжамин, Айрис Бербен, Рюн Темт, Карлтон Банс, Йоахим Рааф, Шон Джексон, Дэниэл Ингс, Джим Бродбент
О фильме:
Фильм повествует о трамплинисте Эдди, по прозвищу «Орел». Он прославился благодаря своим неудачам, ибо на всех соревнованиях он занимал последние места.

Страна: Великобритания, США, Германия
Студия: Marv Films, Saville Productions, Studio Babelsberg
Продолжительность: 01:45:00
Перевод: Дублированный | Лицензия Blu-Ray CEE
Файл
Кодек: MPEG-4
Качество: BDRemux 1080p
Видео: 1920x804, 29.8 Mbit/s, 23.976 fps
Звук:
Аудио #01: 48 kHz, DTS, 5.1, 768 Kbps | Дублированный | Лицензия Blu-Ray CEE |
Аудио #02: 48 kHz, AC3, 5.1, 448 Kbps | Дублированный | Лицензия Blu-Ray CEE |
Аудио #03: 48 kHz, DTS-HD MA, 7.1, 4890 kbps | Оригинал |
Субтитры: Русские (forced,full), английские (forced,full,SDH)

MI

General
Unique ID : 225130158353928616775879416937586325030 (0xA95E7DC82FA2CB398CC11F2617077626)
Complete name : G:VideoEddie the Eagle.2016.D.BDREMUX.1080p.ExKinoRay.mkv
Format : Matroska
Format version : Version 4 / Version 2
File size : 26.5 GiB
Duration : 1 h 45 min
Overall bit rate mode : Variable
Overall bit rate : 35.9 Mb/s
Movie name : Eddie the Eagle.2016.D.BDREMUX.1080p.ExKinoRay
Encoded date : UTC 2016-08-18 11:53:33
Writing application : mkvmerge v8.3.0 ('Over the Horizon') 64bit
Writing library : libebml v1.3.1 + libmatroska v1.4.2
Video
ID : 1
Format : AVC
Format/Info : Advanced Video Codec
Format profile : High@L4.1
Format settings, CABAC : Yes
Format settings, ReFrames : 4 frames
Codec ID : V_MPEG4/ISO/AVC
Duration : 1 h 45 min
Bit rate mode : Variable
Bit rate : 29.8 Mb/s
Maximum bit rate : 31.0 Mb/s
Width : 1 920 pixels
Height : 1 080 pixels
Display aspect ratio : 16:9
Frame rate mode : Constant
Frame rate : 23.976 (24000/1001) FPS
Color space : YUV
Chroma subsampling : 4:2:0
Bit depth : 8 bits
Scan type : Progressive
Bits/(Pixel*Frame) : 0.599
Stream size : 22.0 GiB (83%)
Language : English
Default : No
Forced : No
Audio #1
ID : 2
Format : DTS
Format/Info : Digital Theater Systems
Mode : 16
Format settings, Endianness : Big
Codec ID : A_DTS
Duration : 1 h 45 min
Bit rate mode : Constant
Bit rate : 768 kb/s
Channel(s) : 6 channels
Channel positions : Front: L C R, Side: L R, LFE
Sampling rate : 48.0 kHz
Frame rate : 93.750 FPS (512 spf)
Bit depth : 24 bits
Compression mode : Lossy
Stream size : 581 MiB (2%)
Title : DUB-DTS [Blu-Ray CEE]
Language : Russian
Default : Yes
Forced : No
Audio #2
ID : 3
Format : AC-3
Format/Info : Audio Coding 3
Mode extension : CM (complete main)
Format settings, Endianness : Big
Codec ID : A_AC3
Duration : 1 h 45 min
Bit rate mode : Constant
Bit rate : 448 kb/s
Channel(s) : 6 channels
Channel positions : Front: L C R, Side: L R, LFE
Sampling rate : 48.0 kHz
Frame rate : 31.250 FPS (1536 spf)
Compression mode : Lossy
Stream size : 339 MiB (1%)
Title : DUB-AC3 [Blu-Ray CEE]
Language : Russian
Default : No
Forced : No
Audio #3
ID : 4
Format : DTS
Format/Info : Digital Theater Systems
Format profile : MA / Core
Mode : 16
Format settings, Endianness : Big
Codec ID : A_DTS
Duration : 1 h 45 min
Bit rate mode : Variable / Constant
Bit rate : 4 890 kb/s / 1 509 kb/s
Channel(s) : 8 channels / 6 channels
Channel positions : Front: L C R, Side: L R, Back: L R, LFE / Front: L C R, Side: L R, LFE
Sampling rate : 48.0 kHz
Frame rate : 93.750 FPS (512 spf)
Bit depth : 24 bits
Compression mode : Lossless / Lossy
Stream size : 3.61 GiB (14%)
Title : Original
Language : English
Default : No
Forced : No
Text #1
ID : 5
Format : UTF-8
Codec ID : S_TEXT/UTF8
Codec ID/Info : UTF-8 Plain Text
Duration : 1 h 40 min
Bit rate : 2 b/s
Count of elements : 25
Stream size : 1.53 KiB (0%)
Title : Forced
Language : Russian
Default : Yes
Forced : No
Text #2
ID : 6
Format : UTF-8
Codec ID : S_TEXT/UTF8
Codec ID/Info : UTF-8 Plain Text
Duration : 1 h 40 min
Bit rate : 88 b/s
Count of elements : 1143
Stream size : 65.0 KiB (0%)
Title : Full
Language : Russian
Default : No
Forced : No
Text #3
ID : 7
Format : UTF-8
Codec ID : S_TEXT/UTF8
Codec ID/Info : UTF-8 Plain Text
Duration : 1 h 39 min
Bit rate : 55 b/s
Count of elements : 1105
Stream size : 40.5 KiB (0%)
Title : Full
Language : English
Default : No
Forced : No
Text #4
ID : 8
Format : UTF-8
Codec ID : S_TEXT/UTF8
Codec ID/Info : UTF-8 Plain Text
Duration : 1 h 44 min
Bit rate : 62 b/s
Count of elements : 1640
Stream size : 47.7 KiB (0%)
Title : SDH
Language : English
Default : No
Forced : No
Menu
00:00:00.000 : en:Chapter 01
00:03:33.171 : en:Chapter 02
00:08:15.161 : en:Chapter 03
00:12:06.684 : en:Chapter 04
00:17:54.573 : en:Chapter 05
00:21:31.081 : en:Chapter 06
00:26:19.578 : en:Chapter 07
00:31:41.566 : en:Chapter 08
00:37:13.272 : en:Chapter 09
00:41:46.962 : en:Chapter 10
00:47:12.329 : en:Chapter 11
00:50:19.349 : en:Chapter 12
00:53:39.591 : en:Chapter 13
00:56:57.580 : en:Chapter 14
01:02:22.905 : en:Chapter 15
01:08:16.884 : en:Chapter 16
01:11:42.298 : en:Chapter 17
01:17:05.787 : en:Chapter 18
01:20:00.587 : en:Chapter 19
01:23:23.456 : en:Chapter 20
01:27:44.592 : en:Chapter 21
01:31:40.119 : en:Chapter 22
01:36:53.057 : en:Chapter 23
01:40:42.077 : en:Chapter 24

Скриншоты

Релиз от: Автор релиза:
[Профиль] [ЛС]
Кто просматривает тему:

Показать сообщения:    

Текущее время: Сегодня 12:49

Часовой пояс: GMT



Вы не можете начинать темы
Вы не можете отвечать на сообщения
Вы не можете редактировать свои сообщения
Вы не можете удалять свои сообщения
Вы не можете голосовать в опросах
Вы не можете прикреплять файлы к сообщениям
Вы не можете скачивать файлы