Эдди «Орел» / Eddie the Eagle (2016) BDRip-AVC | iTunes

 
Автор Сообщение

Russian Mafia ®

Пол:

Стаж: 1 год 8 месяцев

Сообщений: 4257



Награды: 10 (Подробнее)

Top Releaser 3 (Количество: 1) Mega Seeder 5 (Количество: 1) Top Releaser 5 (Количество: 1)
Торрент-статистика

Создавать темы 12-Июн-2016 07:26

[Цитировать]

Информация о фильме
Название: Эдди «Орел»
Оригинальное название: Eddie the Eagle
Год выпуска: 2016
Страна: Великобритания, США, Германия
Жанр: драма, комедия, биография, спорт-Перевод: Дубляж - [iTunes]
Субтитры: русские (Forced, Full) [iTunes], украинские (Forced, Full) [iTunes], английские (Forced, Full) [iTunes]
Продолжительность: 01:45:43-Режиссер: Декстер Флетчер
В ролях: Тэрон Эджертон (Eddie Edwards), Хью Джекман (Bronson Peary), Кристофер Уокен (Warren Sharp), Джо Хартли (Janette), Том Костелло (Eddie (10 years old)), Кит Аллен (Terry), Дикон Толсон (UK Doctor), Джек Костелло (Eddie (15 years old)), Марк Бентон (Richmond the BOA Official), Тим МакИннерни (Dustin Target), Эдвин Эндре (Matti Nykänen), Мэдс Сьёгард Петтерсен (Erik Moberg)-Описание:
Фильм повествует о трамплинисте Эдди, по прозвищу «Орел». Он прославился благодаря своим неудачам, ибо на всех соревнованиях он занимал последние места.-Рейтинг:

MPAA: PG-13 - Детям до 13 лет просмотр не желателен-Качество: BDRip-AVC
Формат: MKV
Видео: AVC, 1024x428 (2.40:1), 2623 kbps, 23,976 fps, 0,250 bpp
Аудио №1: русский / AC3 / 5.1 / 48 kHz / 384 kbps / 16 bit |Дубляж, iTunes|
Аудио №2: украинский / AC3 / 2.0 / 48 kHz / 160 kbps / 16 bit |Дубляж, iTunes|
Аудио №3: английский / AC3 / 5.1 / 48 kHz / 448 kbps / 16 bit
Навигация по главам: есть
Семпл-Релиз от: by -Lexx--

ОтчетМедиаИнфо

General
Unique ID : 194000400700694599747532833439666159851 (0x91F31E3B5C1D60DCB7C03446E6EC40EB)
Complete name : E:Eddie.The.Eagle.2016.BDRip-AVC.by.R.G.Resident.mkv
Format : Matroska
Format version : Version 4 / Version 2
File size : 2.67 GiB
Duration : 1h 45mn
Overall bit rate : 3 617 Kbps
Movie name : Эдди «Орел» (2016) BDRip-AVC by R.G. Resident
Encoded date : UTC 2016-06-12 02:37:40
Writing application : mkvmerge v9.2.0 ('Photograph') 64bit
Writing library : libebml v1.3.3 + libmatroska v1.4.4
DURATION : 01:45:43.392000000
NUMBER_OF_FRAMES : 198231
NUMBER_OF_BYTES : 355229952
_STATISTICS_WRITING_APP : mkvmerge v9.2.0 ('Photograph') 64bit
_STATISTICS_WRITING_DATE_UTC : 2016-06-12 02:37:40
_STATISTICS_TAGS : BPS DURATION NUMBER_OF_FRAMES NUMBER_OF_BYTES
Video
ID : 1
Format : AVC
Format/Info : Advanced Video Codec
Format profile : High@L4.1
Format settings, CABAC : Yes
Format settings, ReFrames : 9 frames
Codec ID : V_MPEG4/ISO/AVC
Duration : 1h 45mn
Bit rate : 2 623 Kbps
Width : 1 024 pixels
Height : 428 pixels
Display aspect ratio : 2.40:1
Frame rate : 23.976 fps
Color space : YUV
Chroma subsampling : 4:2:0
Bit depth : 8 bits
Scan type : Progressive
Bits/(Pixel*Frame) : 0.250
Stream size : 1.89 GiB (71%)
Title : -Lexx-
Writing library : x264 core 146 r2538 121396c
Encoding settings : cabac=1 / ref=9 / deblock=1:-2:-2 / analyse=0x3:0x113 / me=umh / subme=11 / psy=1 / psy_rd=1.00:0.10 / mixed_ref=1 / me_range=48 / chroma_me=1 / trellis=2 / 8x8dct=1 / cqm=0 / deadzone=21,11 / fast_pskip=0 / chroma_qp_offset=-3 / threads=6 / lookahead_threads=2 / sliced_threads=0 / nr=0 / decimate=0 / interlaced=0 / bluray_compat=0 / constrained_intra=0 / bframes=10 / b_pyramid=2 / b_adapt=2 / b_bias=0 / direct=3 / weightb=1 / open_gop=0 / weightp=2 / keyint=240 / keyint_min=23 / scenecut=40 / intra_refresh=0 / rc=2pass / mbtree=0 / bitrate=2623 / ratetol=1.0 / qcomp=0.60 / qpmin=0 / qpmax=69 / qpstep=4 / cplxblur=20.0 / qblur=0.5 / ip_ratio=1.40 / pb_ratio=1.30 / aq=1:1.00
Language : English
Default : Yes
Forced : No
DURATION : 01:45:43.337000000
NUMBER_OF_FRAMES : 152088
NUMBER_OF_BYTES : 2079540703
_STATISTICS_WRITING_APP : mkvmerge v9.2.0 ('Photograph') 64bit
_STATISTICS_WRITING_DATE_UTC : 2016-06-12 02:37:40
_STATISTICS_TAGS : BPS DURATION NUMBER_OF_FRAMES NUMBER_OF_BYTES
Audio #1
ID : 2
Format : AC-3
Format/Info : Audio Coding 3
Mode extension : CM (complete main)
Codec ID : A_AC3
Duration : 1h 45mn
Bit rate mode : Constant
Bit rate : 384 Kbps
Channel(s) : 6 channels
Channel positions : Front: L C R, Side: L R, LFE
Sampling rate : 48.0 KHz
Bit depth : 16 bits
Compression mode : Lossy
Stream size : 290 MiB (11%)
Title : iTunes
Language : Russian
Default : Yes
Forced : No
Audio #2
ID : 3
Format : AC-3
Format/Info : Audio Coding 3
Mode extension : CM (complete main)
Codec ID : A_AC3
Duration : 1h 45mn
Bit rate mode : Constant
Bit rate : 160 Kbps
Channel(s) : 2 channels
Channel positions : Front: L R
Sampling rate : 48.0 KHz
Bit depth : 16 bits
Compression mode : Lossy
Stream size : 121 MiB (4%)
Title : iTunes
Language : Ukrainian
Default : No
Forced : No
Audio #3
ID : 4
Format : AC-3
Format/Info : Audio Coding 3
Mode extension : CM (complete main)
Codec ID : A_AC3
Duration : 1h 45mn
Bit rate mode : Constant
Bit rate : 448 Kbps
Channel(s) : 6 channels
Channel positions : Front: L C R, Side: L R, LFE
Sampling rate : 48.0 KHz
Bit depth : 16 bits
Compression mode : Lossy
Stream size : 339 MiB (12%)
Title : Original
Language : English
Default : No
Forced : No
Text #1
ID : 5
Format : UTF-8
Codec ID : S_TEXT/UTF8
Codec ID/Info : UTF-8 Plain Text
Title : Forced, iTunes
Language : Russian
Default : Yes
Forced : No
Text #2
ID : 6
Format : UTF-8
Codec ID : S_TEXT/UTF8
Codec ID/Info : UTF-8 Plain Text
Title : iTunes
Language : Russian
Default : No
Forced : No
Text #3
ID : 7
Format : UTF-8
Codec ID : S_TEXT/UTF8
Codec ID/Info : UTF-8 Plain Text
Title : Forced, iTunes
Language : Ukrainian
Default : No
Forced : No
Text #4
ID : 8
Format : UTF-8
Codec ID : S_TEXT/UTF8
Codec ID/Info : UTF-8 Plain Text
Title : iTunes
Language : Ukrainian
Default : No
Forced : No
Text #5
ID : 9
Format : UTF-8
Codec ID : S_TEXT/UTF8
Codec ID/Info : UTF-8 Plain Text
Title : Forced, iTunes
Language : English
Default : No
Forced : No
Text #6
ID : 10
Format : UTF-8
Codec ID : S_TEXT/UTF8
Codec ID/Info : UTF-8 Plain Text
Title : iTunes
Language : English
Default : No
Forced : No
Menu
00:00:00.000 : en:00:00:00.000
00:03:33.171 : en:00:03:33.171
00:08:15.161 : en:00:08:15.161
00:12:06.684 : en:00:12:06.684
00:17:54.573 : en:00:17:54.573
00:21:31.081 : en:00:21:31.081
00:26:19.578 : en:00:26:19.578
00:31:41.566 : en:00:31:41.566
00:37:13.273 : en:00:37:13.273
00:41:46.963 : en:00:41:46.963
00:47:12.329 : en:00:47:12.329
00:50:19.350 : en:00:50:19.350
00:53:39.591 : en:00:53:39.591
00:56:57.581 : en:00:56:57.581
01:02:22.906 : en:01:02:22.906
01:08:16.884 : en:01:08:16.884
01:11:42.298 : en:01:11:42.298
01:17:05.788 : en:01:17:05.788
01:20:00.587 : en:01:20:00.587
01:23:23.457 : en:01:23:23.457
01:27:44.593 : en:01:27:44.593
01:31:40.120 : en:01:31:40.120
01:36:53.057 : en:01:36:53.057
01:40:42.078 : en:01:40:42.078

Скриншоты

[Профиль] [ЛС]
Кто просматривает тему:

Показать сообщения:    

Текущее время: Сегодня 17:35

Часовой пояс: GMT



Вы не можете начинать темы
Вы не можете отвечать на сообщения
Вы не можете редактировать свои сообщения
Вы не можете удалять свои сообщения
Вы не можете голосовать в опросах
Вы не можете прикреплять файлы к сообщениям
Вы не можете скачивать файлы