Эдди «Орел» / Eddie the Eagle (2016) WEB-DL 1080p | iTunes

 
Автор Сообщение

BOSS ®

Пол:

Стаж: 2 года 1 месяц

Сообщений: 3746

Откуда: ODESSA



Награды: 20 (Подробнее)

Top Releaser 3 (Количество: 1) Mega Releaser 1 (Количество: 1) Top Releaser 2 (Количество: 1)
Торрент-статистика

Создавать темы 27-Май-2016 04:48

[Цитировать]

Информация о фильме
Название: Эдди «Орел»
Оригинальное название: Eddie the Eagle
Год выхода: 2016
Жанр: Драма, комедия, биография, спорт
Режиссер: Декстер Флетчер
В ролях: Тэрон Эджертон, Хью Джекман, Кристофер Уокен, Джо Хартли, Том Костелло, Кит Аллен, Дикон Толсон, Джек Костелло, Марк Бентон, Тим МакИннерни, Эдвин Эндре, Мэдс Сьёгард Петтерсен, Марк Бенжамин, Айрис Бербен, Рюн Темт, Карлтон Банс, Йоахим Рааф, Шон Джексон, Дэниэл Ингс, Джим Бродбент
О фильме:
Фильм повествует о трамплинисте Эдди, по прозвищу «Орел». Он прославился благодаря своим неудачам, ибо на всех соревнованиях он занимал последние места.

Страна: Великобритания, США, Германия
Студия: Marv Films, Saville Productions, Studio Babelsberg
Продолжительность: 01:45:00
Перевод: Дублированный | iTunes
Файл
Кодек: MPEG-4
Качество: WEB-DL 1080p
Видео: 1916x800, 4539 Kbit/s, 23.976 fps
Звук:
Аудио #01: 48 kHz, AC3, 5.1, 384 Kbps | Дублированный, iTunes |AC3
Аудио #02: 48 kHz, AAC, 2.0, 156 kbps | Оригинал |AAC
Субтитры: Английские

MI

General
Unique ID : 180849863871657612427526234366808966491 (0x880E6AB52A9169BBADFAC33A098C455B)
Complete name : F:VideoEddie.The.Eagle.2016.WEB-DL.1080p.ExKinoRay.mkv
Format : Matroska
Format version : Version 4 / Version 2
File size : 3.77 GiB
Duration : 1h 46mn
Overall bit rate : 5 078 Kbps
Movie name : Eddie.The.Eagle.2016.WEB-DL.1080p.ExKinoRay
Encoded date : UTC 2016-05-27 03:55:09
Writing application : mkvmerge v8.3.0 ('Over the Horizon') 64bit
Writing library : libebml v1.3.1 + libmatroska v1.4.2
Video
ID : 1
Format : AVC
Format/Info : Advanced Video Codec
Format profile : High@L4
Format settings, CABAC : Yes
Format settings, ReFrames : 5 frames
Codec ID : V_MPEG4/ISO/AVC
Duration : 1h 46mn
Bit rate : 4 539 Kbps
Width : 1 916 pixels
Height : 800 pixels
Display aspect ratio : 2.40:1
Frame rate mode : Constant
Frame rate : 23.976 (23976/1000) fps
Color space : YUV
Chroma subsampling : 4:2:0
Bit depth : 8 bits
Scan type : Progressive
Bits/(Pixel*Frame) : 0.123
Stream size : 3.37 GiB (89%)
Language : English
Default : Yes
Forced : No
Color range : Limited
Color primaries : BT.709
Transfer characteristics : BT.709
Matrix coefficients : BT.709
Audio #1
ID : 2
Format : AC-3
Format/Info : Audio Coding 3
Mode extension : CM (complete main)
Format settings, Endianness : Big
Codec ID : A_AC3
Duration : 1h 45mn
Bit rate mode : Constant
Bit rate : 384 Kbps
Channel(s) : 6 channels
Channel positions : Front: L C R, Side: L R, LFE
Sampling rate : 48.0 KHz
Frame rate : 31.250 fps (1536 spf)
Compression mode : Lossy
Stream size : 290 MiB (8%)
Title : DUB [iTunes]
Language : Russian
Default : Yes
Forced : No
Audio #2
ID : 3
Format : AAC
Format/Info : Advanced Audio Codec
Format profile : LC
Codec ID : A_AAC
Duration : 1h 45mn
Bit rate : 156 Kbps
Channel(s) : 2 channels
Channel positions : Front: L R
Sampling rate : 48.0 KHz
Frame rate : 46.875 fps (1024 spf)
Compression mode : Lossy
Stream size : 118 MiB (3%)
Title : Original
Language : English
Default : No
Forced : No
Text
ID : 4
Format : UTF-8
Codec ID : S_TEXT/UTF8
Codec ID/Info : UTF-8 Plain Text
Duration : 1h 44mn
Bit rate : 61 bps
Count of elements : 1479
Stream size : 47.2 KiB (0%)
Language : English
Default : No
Forced : No
Menu
00:00:00.000 : en:1
00:03:32.170 : en:2
00:08:14.160 : en:3
00:12:05.683 : en:4
00:17:53.572 : en:5
00:21:30.080 : en:6
00:26:18.576 : en:7
00:31:40.564 : en:8
00:37:10.352 : en:9
00:41:45.960 : en:10
00:47:11.327 : en:11
00:50:18.347 : en:12
00:53:38.588 : en:13
00:56:56.577 : en:14
01:02:21.902 : en:15
01:08:15.880 : en:16
01:11:41.293 : en:17
01:17:04.783 : en:18
01:19:59.582 : en:19
01:23:22.451 : en:20
01:27:43.587 : en:21
01:31:39.114 : en:22
01:36:52.051 : en:23
01:40:37.401 : en:24

Скриншоты

[Профиль] [ЛС]
Кто просматривает тему:

Показать сообщения:    

Текущее время: Сегодня 21:29

Часовой пояс: GMT



Вы не можете начинать темы
Вы не можете отвечать на сообщения
Вы не можете редактировать свои сообщения
Вы не можете удалять свои сообщения
Вы не можете голосовать в опросах
Вы не можете прикреплять файлы к сообщениям
Вы не можете скачивать файлы