Эдвард Радзинский: Боги Жаждут. Серии 1-2 (из 4) (Андрей Торстенсен) [2015, Документальный, HDTV 720p]

 
Автор Сообщение

TorrentFilm ®

Пол:

Стаж: 2 года

Сообщений: 7741



Награды: Нет

Торрент-статистика

Создавать темы 03-Апр-2015 00:02

[Цитировать]

Эдвард Радзинский: Боги Жаждут- Год выпуска: 2015
Страна: Россия
Канал: Россия HD
Жанр: Документальный
Общая продолжительность: 3:31:22
Режиссер: Андрей Торстенсен-Описание: Авторская программа Эдварда Радзинского рассказывает о великой французской революции, которая, свергнув монархию, основала новое царство - царство палача. И еще это история о русских радикалах - большевиках, которые усердно повторяли кровавые уроки французской революции. Впрочем, пришлось им исполнить и ее основной закон: "Революция заботливо пожирает своих детей". Но главное - сама история. История не добрая учительница, но суровая надзирательница. Она больно бьет, когда не понимают ее уроков.-Автор рипа: lrn
Автор записи: Files-х
Сэмпл: sendfile-Тип релиза: HDTV 720p
Контейнер: MKV
Видео: 1280x720 (16:9), 25,000 fps, H264, ~4000 kbps avg, ~0.174 bit/pixel
Аудио: 48 kHz, AC3 Dolby Digital, 2/0 (L,R) ch, ~192.00 kbps avg-

Список и продолжительность серийСерия №1 (0:48:04)

Французский министр Талейран верно заметил: "Кто не жил в XVIII веке, тот не жил вовсе". Автор приглашает зрителей проследовать в лучшие парижские гостиные галантного XVIII века. В одном из самых знаменитых французских салонов за несколько лет до конца этой блестящей эпохи великий мистификатор и маг Жак Казот предрек события, которые должны были трагически изменить судьбы гостей именитого салона и всей Европы. Уже вскоре Она началась - Революция.

Серия №2 (0:49:34)

Как и все революции, Великая французская революция начинается с праздника. Вихрь событий поднимает на вершины все новых и новых вождей - великанов, которые при падении окажутся карликами. Толпы черни заполняют великолепный Версаль, беспомощная королевская чета отправляется в Париж, и Марии Антуанетте, которая так прелестно играла роль служанки в придворном театре, по иронии истории придется позже еще раз повторить эту роль во время неудачного побега из столицы. Но в это тяжелое время она напишет самые счастливые слова своему возлюбленному: "Мой самый любящий и самый любимый человек на свете...".

Серия №3 (0:55:52)

Начался бесконечный путь на гильотину. Галантные игры и любовные похождения будут тоскливо и одинаково заканчиваться на эшафоте. И уже один из революционеров воскликнул: "Мы хотели ниспровергнуть монархию, а основали новое царство - твое, палач".
Телега палача объединит всех: и короля, и королеву, и знаменитых аристократов, и революционеров, и самого вождя революции Робеспьера со всей его новой свитой.
Прошло время, и в середине XIX века знаменитый французский писатель, размышляя над итогами Великой французской революции, загадочно предрек: "Катастрофа, случившаяся в Париже, это только начало: мир ждет новый, куда более страшный, революционный катаклизм..."

Серия №4 (0:57:50)

И он наступил... В России к власти пришли верные ученики французских радикалов - большевики. Они усердно повторят все кровавые достижения французских революционеров, не забыв исполнить главный урок: "Революция, как античный бог, пожирает своих детей. Берегитесь! Боги жаждут!".
Зрители увидят великолепный Версаль, знаменитый Люксембургский дворец, превращенный в тюрьму в дни революции, прекрасный Трианон, который так любовно отстраивала Мария Антуанетта, разорив богатейшую французскую казну, грязные камеры тюрьмы Консьержери, в которых провели свои последние дни перед эшафотом королева Франции, а чуть позже - вождь революции Робеспьер, и, наконец, колонный зал Смольного, где было торжественно провозглашено новое государство рабочих и крестьян.
Все снималось в реальных интерьерах. Зрители смогут почувствовать исчезнувший дух времени, услышать голос Истории…

Скриншоты

-

MediaInfoEdvard.Radzinskiy.Bogi.Zhazhdut.(01).2015.HDTV.720p.x264-lrn.mkv

GeneralUnique ID : 244849880607571619928836354943699582128 (0xB8345F27597AC8D9ADC0502A27BAFCB0)Complete name : E:\uTorrent.Temp\Temp\Edvard.Radzinskiy.Bogi.Zhazhdut.2015.HDTV.720p.x264-lrn\Edvard.Radzinskiy.Bogi.Zhazhdut.(01).2015.HDTV.720p.x264-lrn.mkvFormat : MatroskaFormat version : Version 4 / Version 2File size : 1.41 GiBDuration : 48mn 4sOverall bit rate : 4 193 KbpsMovie name : Edvard.Radzinskiy.Bogi.Zhazhdut.(01).2015.HDTV.720p.x264-lrnEncoded date : UTC 2010-02-22 21:41:31Writing application : mkvmerge v5.9.0 ('On The Loose') built on Dec 9 2012 15:37:01Writing library : libebml v1.3.0 + libmatroska v1.4.0DURATION : 00:48:04.960000000NUMBER_OF_FRAMES : 72124NUMBER_OF_BYTES : 1442356533_STATISTICS_WRITING_APP : mkvmerge v7.0.0 ('Where We Going') 32bit built on Jun 9 2014 15:08:34_STATISTICS_WRITING_DATE_UT : 2015-03-18 13:53:23_STATISTICS_TAGS : BPS DURATION NUMBER_OF_FRAMES NUMBER_OF_BYTES
VideoID : 1Format : AVCFormat/Info : Advanced Video CodecFormat profile : High@L4.1Format settings, CABAC : YesFormat settings, ReFrames : 8 framesCodec ID : V_MPEG4/ISO/AVCDuration : 48mn 4sBit rate : 4 000 KbpsWidth : 1 280 pixelsHeight : 720 pixelsDisplay aspect ratio : 16:9Frame rate mode : ConstantFrame rate : 25.000 fpsColor space : YUVChroma subsampling : 4:2:0Bit depth : 8 bitsScan type : ProgressiveBits/(Pixel*Frame) : 0.174Stream size : 1.32 GiB (93%)Writing library : x264 core 142 r2431 ac76440Encoding settings : cabac=1 / ref=8 / deblock=1:-3:-3 / analyse=0x3:0x133 / me=umh / subme=9 / psy=1 / psy_rd=1.00:0.00 / mixed_ref=1 / me_range=32 / chroma_me=1 / trellis=2 / 8x8dct=1 / cqm=0 / deadzone=21,11 / fast_pskip=1 / chroma_qp_offset=-2 / threads=12 / lookahead_threads=2 / sliced_threads=0 / nr=0 / decimate=1 / interlaced=0 / bluray_compat=0 / constrained_intra=0 / bframes=8 / b_pyramid=2 / b_adapt=2 / b_bias=0 / direct=3 / weightb=1 / open_gop=0 / weightp=2 / keyint=250 / keyint_min=25 / scenecut=40 / intra_refresh=0 / rc_lookahead=50 / rc=2pass / mbtree=1 / bitrate=4000 / ratetol=1.0 / qcomp=0.60 / qpmin=0 / qpmax=69 / qpstep=4 / cplxblur=20.0 / qblur=0.5 / vbv_maxrate=62500 / vbv_bufsize=78125 / nal_hrd=none / filler=0 / ip_ratio=1.40 / aq=1:1.00Default : YesForced : No
AudioID : 2Format : AC-3Format/Info : Audio Coding 3Mode extension : CM (complete main)Format settings, Endianness : BigCodec ID : A_AC3Duration : 48mn 4sBit rate mode : ConstantBit rate : 192 KbpsChannel(s) : 2 channelsChannel positions : Front: L RSampling rate : 48.0 KHzBit depth : 16 bitsCompression mode : LossyStream size : 66.0 MiB (5%)Language : RussianDefault : YesForced : No

Edvard.Radzinskiy.Bogi.Zhazhdut.(02).2015.HDTV.720p.x264-lrn.mkv

GeneralUnique ID : 211429235960646628012948521948336335341 (0x9F0FCA27858A4DEFB0DAC186BF6FA9ED)Complete name : E:\uTorrent.Temp\Temp\Edvard.Radzinskiy.Bogi.Zhazhdut.2015.HDTV.720p.x264-lrn\Edvard.Radzinskiy.Bogi.Zhazhdut.(02).2015.HDTV.720p.x264-lrn.mkvFormat : MatroskaFormat version : Version 4 / Version 2File size : 1.45 GiBDuration : 49mn 34sOverall bit rate : 4 193 KbpsMovie name : Edvard.Radzinskiy.Bogi.Zhazhdut.(02).2015.HDTV.720p.x264-lrnEncoded date : UTC 2010-02-22 21:41:31Writing application : mkvmerge v5.9.0 ('On The Loose') built on Dec 9 2012 15:37:01Writing library : libebml v1.3.0 + libmatroska v1.4.0DURATION : 00:49:34.640000000NUMBER_OF_FRAMES : 74366NUMBER_OF_BYTES : 1486942303_STATISTICS_WRITING_APP : mkvmerge v7.0.0 ('Where We Going') 32bit built on Jun 9 2014 15:08:34_STATISTICS_WRITING_DATE_UT : 2015-03-18 16:03:44_STATISTICS_TAGS : BPS DURATION NUMBER_OF_FRAMES NUMBER_OF_BYTES
VideoID : 1Format : AVCFormat/Info : Advanced Video CodecFormat profile : High@L4.1Format settings, CABAC : YesFormat settings, ReFrames : 8 framesCodec ID : V_MPEG4/ISO/AVCDuration : 49mn 34sBit rate : 4 000 KbpsWidth : 1 280 pixelsHeight : 720 pixelsDisplay aspect ratio : 16:9Frame rate mode : ConstantFrame rate : 25.000 fpsColor space : YUVChroma subsampling : 4:2:0Bit depth : 8 bitsScan type : ProgressiveBits/(Pixel*Frame) : 0.174Stream size : 1.36 GiB (93%)Writing library : x264 core 142 r2431 ac76440Encoding settings : cabac=1 / ref=8 / deblock=1:-3:-3 / analyse=0x3:0x133 / me=umh / subme=9 / psy=1 / psy_rd=1.00:0.00 / mixed_ref=1 / me_range=32 / chroma_me=1 / trellis=2 / 8x8dct=1 / cqm=0 / deadzone=21,11 / fast_pskip=1 / chroma_qp_offset=-2 / threads=12 / lookahead_threads=2 / sliced_threads=0 / nr=0 / decimate=1 / interlaced=0 / bluray_compat=0 / constrained_intra=0 / bframes=8 / b_pyramid=2 / b_adapt=2 / b_bias=0 / direct=3 / weightb=1 / open_gop=0 / weightp=2 / keyint=250 / keyint_min=25 / scenecut=40 / intra_refresh=0 / rc_lookahead=50 / rc=2pass / mbtree=1 / bitrate=4000 / ratetol=1.0 / qcomp=0.60 / qpmin=0 / qpmax=69 / qpstep=4 / cplxblur=20.0 / qblur=0.5 / vbv_maxrate=62500 / vbv_bufsize=78125 / nal_hrd=none / filler=0 / ip_ratio=1.40 / aq=1:1.00Default : YesForced : No
AudioID : 2Format : AC-3Format/Info : Audio Coding 3Mode extension : CM (complete main)Format settings, Endianness : BigCodec ID : A_AC3Duration : 49mn 34sBit rate mode : ConstantBit rate : 192 KbpsChannel(s) : 2 channelsChannel positions : Front: L RSampling rate : 48.0 KHzBit depth : 16 bitsCompression mode : LossyStream size : 68.1 MiB (5%)Language : RussianDefault : YesForced : No

Edvard.Radzinskiy.Bogi.Zhazhdut.(03).2015.HDTV.720p.x264-lrn.mkv

GeneralUnique ID : 196114261095235500632355687842584233253 (0x938A3B988CA54E368C06B17586888525)Complete name : E:\uTorrent.Temp\Temp\Edvard.Radzinskiy.Bogi.Zhazhdut.2015.HDTV.720p.x264-lrn\Edvard.Radzinskiy.Bogi.Zhazhdut.(03).2015.HDTV.720p.x264-lrn.mkvFormat : MatroskaFormat version : Version 4 / Version 2File size : 1.64 GiBDuration : 55mn 52sOverall bit rate : 4 194 KbpsMovie name : Edvard.Radzinskiy.Bogi.Zhazhdut.(03).2015.HDTV.720p.x264-lrnEncoded date : UTC 2010-02-22 21:41:31Writing application : mkvmerge v5.9.0 ('On The Loose') built on Dec 9 2012 15:37:01Writing library : libebml v1.3.0 + libmatroska v1.4.0DURATION : 00:55:52.800000000NUMBER_OF_FRAMES : 83820NUMBER_OF_BYTES : 1676331042_STATISTICS_WRITING_APP : mkvmerge v7.0.0 ('Where We Going') 32bit built on Jun 9 2014 15:08:34_STATISTICS_WRITING_DATE_UT : 2015-03-19 19:08:11_STATISTICS_TAGS : BPS DURATION NUMBER_OF_FRAMES NUMBER_OF_BYTES
VideoID : 1Format : AVCFormat/Info : Advanced Video CodecFormat profile : High@L4.1Format settings, CABAC : YesFormat settings, ReFrames : 8 framesCodec ID : V_MPEG4/ISO/AVCDuration : 55mn 52sBit rate : 4 000 KbpsWidth : 1 280 pixelsHeight : 720 pixelsDisplay aspect ratio : 16:9Frame rate mode : ConstantFrame rate : 25.000 fpsColor space : YUVChroma subsampling : 4:2:0Bit depth : 8 bitsScan type : ProgressiveBits/(Pixel*Frame) : 0.174Stream size : 1.53 GiB (93%)Writing library : x264 core 142 r2431 ac76440Encoding settings : cabac=1 / ref=8 / deblock=1:-3:-3 / analyse=0x3:0x133 / me=umh / subme=9 / psy=1 / psy_rd=1.00:0.00 / mixed_ref=1 / me_range=32 / chroma_me=1 / trellis=2 / 8x8dct=1 / cqm=0 / deadzone=21,11 / fast_pskip=1 / chroma_qp_offset=-2 / threads=12 / lookahead_threads=2 / sliced_threads=0 / nr=0 / decimate=1 / interlaced=0 / bluray_compat=0 / constrained_intra=0 / bframes=8 / b_pyramid=2 / b_adapt=2 / b_bias=0 / direct=3 / weightb=1 / open_gop=0 / weightp=2 / keyint=250 / keyint_min=25 / scenecut=40 / intra_refresh=0 / rc_lookahead=50 / rc=2pass / mbtree=1 / bitrate=4000 / ratetol=1.0 / qcomp=0.60 / qpmin=0 / qpmax=69 / qpstep=4 / cplxblur=20.0 / qblur=0.5 / vbv_maxrate=62500 / vbv_bufsize=78125 / nal_hrd=none / filler=0 / ip_ratio=1.40 / aq=1:1.00Default : YesForced : No
AudioID : 2Format : AC-3Format/Info : Audio Coding 3Mode extension : CM (complete main)Format settings, Endianness : BigCodec ID : A_AC3Duration : 55mn 52sBit rate mode : ConstantBit rate : 192 KbpsChannel(s) : 2 channelsChannel positions : Front: L RSampling rate : 48.0 KHzBit depth : 16 bitsCompression mode : LossyStream size : 76.7 MiB (5%)Language : RussianDefault : YesForced : No

Edvard.Radzinskiy.Bogi.Zhazhdut.(04).2015.HDTV.720p.x264-lrn.mkv

GeneralUnique ID : 195989555711630049430684411908464456936 (0x937237255215E35A84A3CD4140AA34E8)Complete name : E:\uTorrent.Temp\Temp\Edvard.Radzinskiy.Bogi.Zhazhdut.2015.HDTV.720p.x264-lrn\Edvard.Radzinskiy.Bogi.Zhazhdut.(04).2015.HDTV.720p.x264-lrn.mkvFormat : MatroskaFormat version : Version 4 / Version 2File size : 1.69 GiBDuration : 57mn 50sOverall bit rate : 4 194 KbpsMovie name : Edvard.Radzinskiy.Bogi.Zhazhdut.(04).2015.HDTV.720p.x264-lrnEncoded date : UTC 2010-02-22 21:41:31Writing application : mkvmerge v5.9.0 ('On The Loose') built on Dec 9 2012 15:37:01Writing library : libebml v1.3.0 + libmatroska v1.4.0DURATION : 00:57:50.160000000NUMBER_OF_FRAMES : 86754NUMBER_OF_BYTES : 1735104330_STATISTICS_WRITING_APP : mkvmerge v7.0.0 ('Where We Going') 32bit built on Jun 9 2014 15:08:34_STATISTICS_WRITING_DATE_UT : 2015-03-19 21:27:24_STATISTICS_TAGS : BPS DURATION NUMBER_OF_FRAMES NUMBER_OF_BYTES
VideoID : 1Format : AVCFormat/Info : Advanced Video CodecFormat profile : High@L4.1Format settings, CABAC : YesFormat settings, ReFrames : 8 framesCodec ID : V_MPEG4/ISO/AVCDuration : 57mn 50sBit rate : 4 000 KbpsWidth : 1 280 pixelsHeight : 720 pixelsDisplay aspect ratio : 16:9Frame rate mode : ConstantFrame rate : 25.000 fpsColor space : YUVChroma subsampling : 4:2:0Bit depth : 8 bitsScan type : ProgressiveBits/(Pixel*Frame) : 0.174Stream size : 1.58 GiB (93%)Writing library : x264 core 142 r2431 ac76440Encoding settings : cabac=1 / ref=8 / deblock=1:-3:-3 / analyse=0x3:0x133 / me=umh / subme=9 / psy=1 / psy_rd=1.00:0.00 / mixed_ref=1 / me_range=32 / chroma_me=1 / trellis=2 / 8x8dct=1 / cqm=0 / deadzone=21,11 / fast_pskip=1 / chroma_qp_offset=-2 / threads=12 / lookahead_threads=2 / sliced_threads=0 / nr=0 / decimate=1 / interlaced=0 / bluray_compat=0 / constrained_intra=0 / bframes=8 / b_pyramid=2 / b_adapt=2 / b_bias=0 / direct=3 / weightb=1 / open_gop=0 / weightp=2 / keyint=250 / keyint_min=25 / scenecut=40 / intra_refresh=0 / rc_lookahead=50 / rc=2pass / mbtree=1 / bitrate=4000 / ratetol=1.0 / qcomp=0.60 / qpmin=0 / qpmax=69 / qpstep=4 / cplxblur=20.0 / qblur=0.5 / vbv_maxrate=62500 / vbv_bufsize=78125 / nal_hrd=none / filler=0 / ip_ratio=1.40 / aq=1:1.00Default : YesForced : No
AudioID : 2Format : AC-3Format/Info : Audio Coding 3Mode extension : CM (complete main)Format settings, Endianness : BigCodec ID : A_AC3Duration : 57mn 50sBit rate mode : ConstantBit rate : 192 KbpsChannel(s) : 2 channelsChannel positions : Front: L RSampling rate : 48.0 KHzBit depth : 16 bitsCompression mode : LossyStream size : 79.4 MiB (5%)Language : RussianDefault : YesForced : No
[Профиль] [ЛС]
Кто просматривает тему:

Форум Тема Автор Размер
Ужасы и мистика Splatterpunk stories 4 (Шокирующие истории 4) - Последняя глава (Эдвард Ли, Ричард Лаймон и др.) [2015, Ужасы, аудиокнига, MP3, 192kbps, Владимир Князев] Magnat 921 MB
Фильмы (HD Rips | 720p, 1080p) Большие гонки / The Great Race (Блэйк Эдвардс / Blake Edwards) [1965 г., Комедия, HDTVRip] DUB + Sub sergej644 7.63 GB
Зарубежные Гoдзилла в 3Д / Godzilla 3D (Гарет Эдвардс) [2014, Фантастика, боевик, приключения, BDremux, 1080p] BD3D TorrentFilm 37.14 GB
Фильмы 2014 года Годзилла / Godzilla (Гарет Эдвардс / Gareth Edwards) [2014 г., Фантастика, боевик, приключения, HDRip] Dub (Звук с TS) sergej644 1.37 GB
Фильмы 2014 года Годзилла / Godzilla (Гарет Эдвардс / Gareth Edwards) [2014, США, Япония, фантастика, TeleSynch] Dub bot 691 MB
Фильмы 2014 года Годзилла / Godzilla (Гарет Эдвардс / Gareth Edwards) [2014, США, Япония, фантастика, боевик, приключения, TS Proper] Dub + Eng bot 2.14 GB
Зарубежные Годзилла 3Д / Godzilla 3D (Гарет Эдвардс / Gareth Edwards) [2014, США, Япония, фантастика, боевик, триллер, Blu-ray Disc 1080p] CEE BD3D TorrentFilm 41.43 GB
Зарубежные Годзилла в 3D / Godzilla 3D (Гарет Эдвардс) [2014 г., фантастика, боевик, приключения, BDRip 1080p] [Half SideBySide / Горизонтальная анаморфная стереопара] DUB [Чистый звук] + L VO [R.A.I.M.] + Eng... Zithylord 10.64 GB
Показать сообщения:    

Текущее время: Сегодня 16:23

Часовой пояс: GMT



Вы не можете начинать темы
Вы не можете отвечать на сообщения
Вы не можете редактировать свои сообщения
Вы не можете удалять свои сообщения
Вы не можете голосовать в опросах
Вы не можете прикреплять файлы к сообщениям
Вы не можете скачивать файлы