Эволюция / Pourquoi j'ai pas mangé mon père (2015) WEBRip 1080p | Трейлер

 
Автор Сообщение

BOSS ®

Пол:

Стаж: 2 года 10 месяцев

Сообщений: 6663

Откуда: ODESSA



Награды: 20 (Подробнее)

Top Seeder 3 (Количество: 1) Mega Seeder 4 (Количество: 1) Top Keeper 3 (Количество: 1)
Торрент-статистика

Создавать темы 29-Июл-2015 16:40

[Цитировать]

Год выпуска: 2015
Производство: Франция, Италия, Бельгия, Китай
Жанр: мультфильм
Перевод: дублированный
Режиссер: Жамель Деббуз
Продюсеры: Фред Фюжа, Ромен Ле Гран, Дидье Бруннер
Актеры: Жамель Деббуз, Мелисса Тёрьо, Арие Эльмале, Патрис Тибо, Кристиан Эк, Диукунда Кома, Эдриан Антуан, Georgette Kala-Lobé, Натали Хомс, Юсеф Хаджди
Описание фильма:
Это история приключилась 2 миллиона лет назад с первобытным человеком по имени Эдуард. Упав с дерева после сытного обеда, он ломает переднюю лапу и ему приходится встать на ноги и научиться передвигаться на своих двоих, чтобы выжить в полной опасностей Саванне.
Дата мировой премьеры: 8 апреля 2015
Дата российской премьеры: 27 августа 2015

Продолжительность: 00:01:53
Качество видео: WEBRip 1080p
Видеокодек: MPEG-4 AVC/H.264
Битрейт видео: 3535 Кбит/сек
Размер кадра: 1920x1038
Аудиокодек: AAC, 2 канала
Битрейт аудио: 126 Кбит/сек

MediaInfo:

Общее
Полное имя : Pourquoi-j_ai-pas-mang.mp4
Формат : MPEG-4
Профиль формата : Base Media
Идентификатор кодека : isom
Размер файла : 49,5 Мбайт
Продолжительность : 1 м. 53 с.
Режим общего битрейта : Переменный
Общий поток : 3664 Кбит/сек
Дата кодирования : UTC 2015-07-24 17:13:43
Дата пометки : UTC 2015-07-24 17:13:43
Программа кодирования : Lavf53.21.1
Видео
Идентификатор : 1
Формат : AVC
Формат/Информация : Advanced Video Codec
Профиль формата : Main@L4
Параметр CABAC формата : Да
Параметр ReFrames формата : 3 кадра
Идентификатор кодека : avc1
Идентификатор кодека/Информация : Advanced Video Coding
Продолжительность : 1 м. 53 с.
Битрейт : 3535 Кбит/сек
Ширина : 1920 пикселей
Высота : 1038 пикселей
Соотношение сторон : 1,85:1
Режим частоты кадров : Постоянный
Частота кадров : 24,000 кадра/сек
Цветовое пространство : YUV
Субдискретизация насыщенности : 4:2:0
Битовая глубина : 8 бит
Тип развёртки : Прогрессивная
Бит/(Пиксели*Кадры) : 0.074
Размер потока : 47,7 Мбайт (96%)
Библиотека кодирования : x264 core 120 r2151 a3f4407
Дата кодирования : UTC 2015-07-24 17:13:43
Дата пометки : UTC 2015-07-24 17:13:43
Аудио
Идентификатор : 2
Формат : AAC
Формат/Информация : Advanced Audio Codec
Профиль формата : LC
Идентификатор кодека : 40
Продолжительность : 1 м. 53 с.
Вид битрейта : Переменный
Битрейт : 126 Кбит/сек
Каналы : 2 канала
Расположение каналов : Front: L R
Частота : 44,1 КГц
Метод сжатия : С потерями
Размер потока : 1,70 Мбайт (3%)
Дата кодирования : UTC 2015-07-24 17:13:43
Дата пометки : UTC 2015-07-24 17:13:43
Скриншоты - -

Скриншоты

[Профиль] [ЛС]
Показать сообщения:    

Текущее время: Сегодня 15:25

Часовой пояс: GMT



Вы не можете начинать темы
Вы не можете отвечать на сообщения
Вы не можете редактировать свои сообщения
Вы не можете удалять свои сообщения
Вы не можете голосовать в опросах
Вы не можете прикреплять файлы к сообщениям
Вы не можете скачивать файлы