Эволюция метала / Metal Evolution / Серии 1-2 из 12 (Сэм Данн / Sam Dunn) [2011 г., Документальный, Web-DL 1080p] VO (М.Чадов) + Sub (Perevodman) + Original

 
Автор Сообщение

TorrentFilm ®

Пол:

Стаж: 2 года

Сообщений: 7741



Награды: Нет

Торрент-статистика

Создавать темы 05-Фев-2015 00:00

[Цитировать]

Эволюция метала / Metal Evolution / Серии 1-2 из 12
Страна: США
Жанр: Документальный
Год выпуска: 2011
Продолжительность: ~45 / серия
Перевод: Переводман
Озвучка: Одноголосая (закадровая) М.Чадов
Оригинальная аудиодорожка: английская
Субтитры: русские (+ форсированные / анимированные)-Режиссер: Сэм Данн / Sam Dunn
В ролях: Скотт Йен, Брюс Дикинсон, Дина Вайнштейн, Роб Хэлфорд, Слэш, Элис Купер, Кевин Эстрада, Лемми, Джон Вайдерхорн и др.
Описание: Проект от канадских документалистов Сэма Данна и Скота Макфадьена, посвященный отдельной специфической области звука и культуры хэви-метал.- -Доп. информация: перевод и видео доступны благодаря dikii. Оригинальный звук отсюда. Релиз группа Переулок Переводмана. Так же, за помощь в создании релиза спасибо jhonny, wizard!
Смотреть с включёнными анимированными сабами, переведены кусочки песен, надписи, названия групп и пр.-Качество видео: Web-DL 1080p
Формат видео: MKV
Видео: x264, 1920x1080 (16:9), ~4909 kbps, 23,976 fps
Аудио #1: DTS, 1536 kbps, 24 bit, 48,0 kHz, 5.1 (VO)
Аудио #2: DTS, 1536 kbps, 24 bit, 48,0 kHz, 5.1 (Original)
Формат субтитров: softsub (SSA/ASS, SRT)
MediaInfo">

Скриншоты MediaInfo

General
Unique ID                                : 251191226805358450892851684695531583178 (0xBCF9ABA8FAE2E88CB7C9984B9D7BF6CA)
Complete name                            : Metal.Evolution.2011.1080p.Perevodman\01.Pre-Metal.1080p.Chadov.mkv
Format                                   : Matroska
Format version                           : Version 4 / Version 2
File size                                : 2.48 GiB
Duration                                 : 43mn 50s
Overall bit rate                         : 8 091 Kbps
Movie name                               : Релиз Переулка Переводмана
Encoded date                             : UTC 2014-12-23 19:35:46
Writing application                      : mkvmerge v6.0.0 ('Coming Up For Air') built on Jan 20 2013 09:52:00
Writing library                          : libebml v1.3.0 + libmatroska v1.4.0
Attachment                               : Yes / Yes / Yes / Yes / Yes / Yes / Yes / Yes / Yes / Yes / Yes / Yes / Poster.png
Video
ID                                       : 1
Format                                   : AVC
Format/Info                              : Advanced Video Codec
Format profile                           : High@L4.0
Format settings, CABAC                   : Yes
Format settings, ReFrames                : 4 frames
Codec ID                                 : V_MPEG4/ISO/AVC
Duration                                 : 43mn 50s
Bit rate                                 : 4 912 Kbps
Width                                    : 1 920 pixels
Height                                   : 1 080 pixels
Display aspect ratio                     : 16:9
Frame rate mode                          : Constant
Frame rate                               : 23.976 fps
Color space                              : YUV
Chroma subsampling                       : 4:2:0
Bit depth                                : 8 bits
Scan type                                : Progressive
Bits/(Pixel*Frame)                       : 0.099
Stream size                              : 1.50 GiB (61%)
Title                                    : Серия первая "Пред-металл"
Language                                 : English
Default                                  : Yes
Forced                                   : No
Color primaries                          : BT.709
Transfer characteristics                 : BT.709
Matrix coefficients                      : BT.709
Audio #1
ID                                       : 2
Format                                   : DTS
Format/Info                              : Digital Theater Systems
Mode                                     : 16
Format settings, Endianness              : Big
Codec ID                                 : A_DTS
Duration                                 : 43mn 50s
Bit rate mode                            : Constant
Bit rate                                 : 1 509 Kbps
Channel(s)                               : 6 channels
Channel positions                        : Front: L C R, Side: L R, LFE
Sampling rate                            : 48.0 KHz
Bit depth                                : 24 bits
Compression mode                         : Lossy
Stream size                              : 473 MiB (19%)
Title                                    : VO М.Чадов | Перевод Переводман
Language                                 : Russian
Default                                  : Yes
Forced                                   : No
Audio #2
ID                                       : 3
Format                                   : DTS
Format/Info                              : Digital Theater Systems
Mode                                     : 16
Format settings, Endianness              : Big
Codec ID                                 : A_DTS
Duration                                 : 43mn 50s
Bit rate mode                            : Constant
Bit rate                                 : 1 509 Kbps
Channel(s)                               : 6 channels
Channel positions                        : Front: L C R, Side: L R, LFE
Sampling rate                            : 48.0 KHz
Bit depth                                : 24 bits
Compression mode                         : Lossy
Stream size                              : 473 MiB (19%)
Title                                    : Original
Language                                 : English
Default                                  : No
Forced                                   : No
Text #1
ID                                       : 4
Format                                   : ASS
Codec ID                                 : S_TEXT/ASS
Codec ID/Info                            : Advanced Sub Station Alpha
Compression mode                         : Lossless
Title                                    : Песни и надписи | Анимированные
Language                                 : Russian
Default                                  : Yes
Forced                                   : No
Text #2
ID                                       : 5
Format                                   : UTF-8
Codec ID                                 : S_TEXT/UTF8
Codec ID/Info                            : UTF-8 Plain Text
Title                                    : Песни и надписи
Language                                 : Russian
Default                                  : No
Forced                                   : No
Text #3
ID                                       : 6
Format                                   : UTF-8
Codec ID                                 : S_TEXT/UTF8
Codec ID/Info                            : UTF-8 Plain Text
Title                                    : Перевод Переводман
Language                                 : Russian
Default                                  : No
Forced                                   : No
04.02.15г. торрент обновлён, добавлена 2 серия. Раздача ведётся путём добавления новых серий. Кто хочет помочь выходу новых серий пишите в ЛС
[Профиль] [ЛС]
Кто просматривает тему:

Форум Тема Автор Размер
Viasat Nature Viasat Nature: Австралия: путешествие сквозь эволюцию / Australia - A Journey Through Evolution (Laura Casamayor del Rincon) [2014 г., Документальный, познавательный, SATRip] skorpionN 744 MB
Фильмы 2009 года Драконий жемчуг: Эволюция / Dragonball Evolution (Джеймс Вонг / James Wong) [2009, США, Гонконг, Великобритания, фантастика, фэнтези, боевик, триллер, приключения, BDRip-AVC] Dub + Original (Eng) +... TorrentFilm 3.19 GB
Зарубежные мультсериалы Люди Икс: Эволюция / X-Men: Evolution [S01-03] (2000) DVDRip Russian Mafia 8.3 GB
Зарубежные мультсериалы Люди Икс: Эволюция / X-Men: Evolution [s04] (2003) SATRip Russian Mafia 1.73 GB
Научная и техническая литература Носов К. - Самураи. Эволюция вооружения (Военная история человечества)[военная история, 2010, PDF LQ, PDF HQ] Garik014 314 MB
National Geographic Пути эволюции / Evolutions [01-03 из 03] (2008) HDTVRip | P1 sergej644 2.05 GB
Разная литература Федоров В.Г. - Эволюция стрелкового оружия. 2 тома [1939, DjVu, RUS] Garik014 15 MB
Мультфильмы СССР Эволюция (1983) SATRip Белочка 35 MB
Показать сообщения:    

Текущее время: Сегодня 04:30

Часовой пояс: GMT



Вы не можете начинать темы
Вы не можете отвечать на сообщения
Вы не можете редактировать свои сообщения
Вы не можете удалять свои сообщения
Вы не можете голосовать в опросах
Вы не можете прикреплять файлы к сообщениям
Вы не можете скачивать файлы