Эволюция Борна / The Bourne Legacy (Тони Гилрой)[2012, Боевик, Триллер, Детектив, HDRip] | Живов

 
Автор Сообщение

sergej644 ®

Пол:

Стаж: 4 года 11 месяцев

Сообщений: 6035

Откуда: Soviet Union



Награды: Нет

Торрент-статистика

Создавать темы 09-Июл-2015 20:27

[Цитировать]


Производство: США
Жанр: Боевик, Триллер, Детектив
Продолжительность: 02:14:54
Перевод: Авторский (одноголосый, закадровый) Ю.Живов
Субтитры: отсутствуют
Режиссер: Тони Гилрой
Актеры: Джереми Реннер, Рейчел Вайс, Эдвард Нортон, Джоан Аллен, Альберт Финни, Скотт Гленн, Стейси Кич, Донна Мерфи, Майкл Чернус, Кори Столл
Описание:
Действие разворачивается параллельно событиям фильма Ультиматум Борна. Выясняется, что одновременно с проектом «Блэкбрайар» разрабатывался проект Разведывательного управления министерства обороны США «Аутком», который отличался от проекта ЦРУ «Тредстоун» тем, что агентам давали специальные таблетки-стимуляторы (синие - для мозга, зелёные - для мышц).
Минус заключался в том, что эти пилюли нужно было принимать регулярно, в противном случае агент начинал физически и умственно деградировать и в итоге умирал. Одним из агентов был юноша Кеннет Джеймс Китсом, который официально считается погибшим на войне. После успешной подготовки он получает новое имя «Аарон Кросс» и становится пятым полевым агентом...

Качество: HDRip
Видео: Xvid, 688x288 (2.35:1), ~23.976 fps, 1 091 Kbps (0.230 bit/pixel)
Аудио: AC3, 6 ch, 448 Kbps, CBR
Релиз от: FAGOT100

Mediainfo:

Формат : AVI
Формат/Информация : Audio Video Interleave
Размер файла : 1,46 Гбайт
Продолжительность : 2 ч. 14 м.
Общий поток : 1549 Кбит/сек
Программа кодирования : VirtualDubMod 1.5.10.3 | www.virtualdub-fr.org || (build 2550/release)
Библиотека кодирования : VirtualDubMod build 2550/release
Видео
Идентификатор : 0
Формат : MPEG-4 Visual
Профиль формата : Advanced Simple@L5
Параметр BVOP формата : 2
Параметр QPel формата : Нет
Параметр GMC формата : Без точки перехода
Параметр матрицы формата : Выборочная
Идентификатор кодека : XVID
Идентификатор кодека/Подсказка : XviD
Продолжительность : 2 ч. 14 м.
Битрейт : 1091 Кбит/сек
Ширина : 688 пикселей
Высота : 288 пикселей
Соотношение сторон : 2,40:1
Частота кадров : 23,976 кадра/сек
Цветовое пространство : YUV
Субдискретизация насыщенности : 4:2:0
Битовая глубина : 8 бит
Тип развёртки : Прогрессивная
Метод сжатия : С потерями
Бит/(Пиксели*Кадры) : 0.230
Размер потока : 1,03 Гбайт (70%)
Библиотека кодирования : XviD 73
Аудио
Идентификатор : 1
Формат : AC-3
Формат/Информация : Audio Coding 3
Расширение режима : CM (complete main)
Параметр Endianness формата : Big
Идентификатор кодека : 2000
Продолжительность : 2 ч. 14 м.
Вид битрейта : Постоянный
Битрейт : 448 Кбит/сек
Каналы : 6 каналов
Расположение каналов : Front: L C R, Side: L R, LFE
Частота : 48,0 КГц
Битовая глубина : 16 бит
Метод сжатия : С потерями
Размер потока : 432 Мбайт (29%)
Выравнивание : Разделение по промежуткам
Продолжительность промежутка : 42 мс. (1,00 видеокадр)
Время предзагрузки промежутка : 500 мс.

Скриншоты


[Профиль] [ЛС]

Создавать темы 06-Авг-2015 22:26 (спустя 28 дней)

Топик был перенесен из форума Фильмы до 2014 года в форум Фильмы 2012 года
sergej644
 
Кто просматривает тему:

Форум Тема Автор Размер
Viasat Nature Viasat Nature: Австралия: путешествие сквозь эволюцию / Australia - A Journey Through Evolution (Laura Casamayor del Rincon) [2014 г., Документальный, познавательный, SATRip] skorpionN 744 MB
Фильмы 2009 года Драконий жемчуг: Эволюция / Dragonball Evolution (Джеймс Вонг / James Wong) [2009, США, Гонконг, Великобритания, фантастика, фэнтези, боевик, триллер, приключения, BDRip-AVC] Dub + Original (Eng) +... TorrentFilm 3.19 GB
Зарубежные мультсериалы Люди Икс: Эволюция / X-Men: Evolution [S01-03] (2000) DVDRip Russian Mafia 8.3 GB
Зарубежные мультсериалы Люди Икс: Эволюция / X-Men: Evolution [s04] (2003) SATRip Russian Mafia 1.73 GB
Научная и техническая литература Носов К. - Самураи. Эволюция вооружения (Военная история человечества)[военная история, 2010, PDF LQ, PDF HQ] Garik014 314 MB
National Geographic Пути эволюции / Evolutions [01-03 из 03] (2008) HDTVRip | P1 sergej644 2.05 GB
Разная литература Федоров В.Г. - Эволюция стрелкового оружия. 2 тома [1939, DjVu, RUS] Garik014 15 MB
Мультфильмы СССР Эволюция (1983) SATRip Белочка 35 MB
Показать сообщения:    

Текущее время: Сегодня 09:59

Часовой пояс: GMT



Вы не можете начинать темы
Вы не можете отвечать на сообщения
Вы не можете редактировать свои сообщения
Вы не можете удалять свои сообщения
Вы не можете голосовать в опросах
Вы не можете прикреплять файлы к сообщениям
Вы не можете скачивать файлы