Эверест / Everest (2015) UHD BDRemux 2160p | 4K | HDR | Лицензия

 
Автор Сообщение

BOSS ®

Пол:

Стаж: 3 года 2 месяца

Сообщений: 8627

Откуда: ODESSA



Награды: 22 (Подробнее)

Top Releaser 5 (Количество: 1) Top Keeper 1 (Количество: 1) Top Keeper 2 (Количество: 1)
Торрент-статистика

Создавать темы 01-Ноя-2017 14:22

[Цитировать]

Информация о фильме
Название: Эверест
Оригинальное название: Everest
Год выхода: 2015
Жанр: Триллер, драма, приключения
Режиссер: Бальтасар Кормакур
В ролях: Джейсон Кларк, Джош Бролин, Джон Хоукс, Робин Райт, Эмили Уотсон, Кира Найтли, Сэм Уортингтон, Джейк Джилленхол, Анг Фула Шерпа, Томас М. Райт, Мартин Хендерсон, Том Гудман-Хилл, Шарлотта Бювинг, Пемба Шерпа, Эми Шиндлер, Саймон Харрисон, Крис Райлли, Наоко Мори, Майкл Келли, Тим Дантей
О фильме:
Эверест — великая неприступная гора, покорить вершину которой мечтают многие профессиональные скалолазы. Одна из экспедиций на ее вершину закончилась настоящей трагедией, однако этот факт не останавливает отважных альпинистов. Опытный инструктор Роб Холл, собрав группу из лучших альпинистов, собирается совершить восхождение на самую высокую вершину планеты. Все эти люди полны мужества и отваги и они не остановятся ни перед чем, пока не поднимутся на вершину Эвереста. Но даже если эта гора покорится им, смогут ли они вернуться обратно живыми и невредимыми?..

Страна: США, Великобритания, Исландия
Студия: Universal Pictures, Cross Creek Pictures
Продолжительность: 02:01:11
Перевод: Дублированный | Лицензия
Файл
Качество: BDRemux 2160p
Видео: MPEG-H HEVC HDR Video, 3840x2160, 51.4 Mbit/s, 23.976 fps
Звук:
Аудио #01: 48 kHz, AC3, 5.1, 448 Kbps | Дублированный | RUS |
Аудио #02: 48 kHz, TrueHD, 7.1, 4928 Kbps | Оригинал | ENG |
Аудио #03: 48 kHz, AC3, 5.1, 640 Kbps | Оригинал | ENG |
Субтитры: Русские (forced, full), английские

MI

General
Unique ID : 250307162068031852962145550211033114505 (0xBC4F67E73C948FC5BACEF097E2E4A789)
Complete name : G:VideoSSDEverest.2015.BDREMUX.2160p.4K.UltraHD.HEVC.HDR.ExKinoRay.mkv
Format : Matroska
Format version : Version 4 / Version 2
File size : 48.7 GiB
Duration : 2 h 1 min
Overall bit rate mode : Variable
Overall bit rate : 57.5 Mb/s
Movie name : Release by ExKinoRay
Encoded date : UTC 2017-11-01 13:05:32
Writing application : mkvmerge v17.0.0 ('Be Ur Friend') 64-bit
Writing library : libebml v1.3.5 + libmatroska v1.4.8
Cover : Yes
Attachments : cover.jpg
Video
ID : 1
Format : HEVC
Format/Info : High Efficiency Video Coding
Format profile : Main 10@L5.1@High
Codec ID : V_MPEGH/ISO/HEVC
Duration : 2 h 1 min
Bit rate : 51.4 Mb/s
Width : 3 840 pixels
Height : 2 160 pixels
Display aspect ratio : 16:9
Frame rate mode : Constant
Frame rate : 23.976 (24000/1001) FPS
Color space : YUV
Chroma subsampling : 4:2:0 (Type 2)
Bit depth : 10 bits
Bits/(Pixel*Frame) : 0.259
Stream size : 43.5 GiB (89%)
Writing library : ATEME Titan KFE 3.7.3 (4.7.3.1003)
Language : English
Default : Yes
Forced : No
Color range : Limited
Color primaries : BT.2020
Transfer characteristics : PQ
Matrix coefficients : BT.2020 non-constant
Mastering display color pri : R: x=0.680000 y=0.320000, G: x=0.265000 y=0.690000, B: x=0.150000 y=0.060000, White point: x=0.312700 y=0.329000
Mastering display luminance : min: 0.0050 cd/m2, max: 1000.0000 cd/m2
Maximum Content Light Level : 991 cd/m2
Maximum Frame-Average Light : 200 cd/m2
Audio #1
ID : 2
Format : AC-3
Format/Info : Audio Coding 3
Format settings, Endianness : Big
Codec ID : A_AC3
Duration : 2 h 1 min
Bit rate mode : Constant
Bit rate : 448 kb/s
Channel(s) : 6 channels
Channel positions : Front: L C R, Side: L R, LFE
Sampling rate : 48.0 kHz
Frame rate : 31.250 FPS (1536 SPF)
Bit depth : 16 bits
Compression mode : Lossy
Stream size : 388 MiB (1%)
Title : Dub [License]
Language : Russian
Service kind : Complete Main
Default : Yes
Forced : No
Audio #2
ID : 3
Format : TrueHD
Format profile : TrueHD+Atmos / TrueHD
Codec ID : A_TRUEHD
Duration : 2 h 1 min
Bit rate mode : Variable
Bit rate : 4 928 kb/s
Maximum bit rate : 8 862 kb/s
Channel(s) : Object Based / 8 channels
Channel positions : Object Based / Front: L C R, Side: L R, Back: L R, LFE
Sampling rate : / 48.0 kHz
Frame rate : 1 200.000 FPS (40 SPF)
Compression mode : Lossless
Stream size : 4.17 GiB (9%)
Title : Original
Language : English
Default : No
Forced : No
Audio #3
ID : 4
Format : AC-3
Format/Info : Audio Coding 3
Format settings, Endianness : Big
Codec ID : A_AC3
Duration : 2 h 1 min
Bit rate mode : Constant
Bit rate : 640 kb/s
Channel(s) : 6 channels
Channel positions : Front: L C R, Side: L R, LFE
Sampling rate : 48.0 kHz
Frame rate : 31.250 FPS (1536 SPF)
Bit depth : 16 bits
Compression mode : Lossy
Stream size : 555 MiB (1%)
Language : English
Service kind : Complete Main
Default : No
Forced : No
Text #1
ID : 5
Format : UTF-8
Codec ID : S_TEXT/UTF8
Codec ID/Info : UTF-8 Plain Text
Duration : 1 h 52 min
Bit rate : 3 b/s
Count of elements : 55
Stream size : 2.56 KiB (0%)
Title : Forced
Language : Russian
Default : Yes
Forced : No
Text #2
ID : 6
Format : UTF-8
Codec ID : S_TEXT/UTF8
Codec ID/Info : UTF-8 Plain Text
Duration : 1 h 52 min
Bit rate : 88 b/s
Count of elements : 1600
Stream size : 72.9 KiB (0%)
Title : Full
Language : Russian
Default : No
Forced : No
Text #3
ID : 7
Format : UTF-8
Codec ID : S_TEXT/UTF8
Codec ID/Info : UTF-8 Plain Text
Duration : 1 h 50 min
Bit rate : 61 b/s
Count of elements : 1806
Stream size : 49.9 KiB (0%)
Title : SDH
Language : English
Default : No
Forced : No
Menu
00:00:00.000 : en:00:00:00.000
00:05:12.145 : en:00:05:12.145
00:09:36.075 : en:00:09:36.075
00:15:13.162 : en:00:15:13.162
00:20:58.424 : en:00:20:58.424
00:26:30.714 : en:00:26:30.714
00:33:15.118 : en:00:33:15.118
00:40:23.755 : en:00:40:23.755
00:47:23.382 : en:00:47:23.382
00:52:14.590 : en:00:52:14.590
00:57:49.174 : en:00:57:49.174
01:01:54.794 : en:01:01:54.794
01:07:22.080 : en:01:07:22.080
01:15:40.578 : en:01:15:40.578
01:21:03.901 : en:01:21:03.901
01:26:59.589 : en:01:26:59.589
01:32:39.137 : en:01:32:39.137
01:41:20.449 : en:01:41:20.449
01:46:47.651 : en:01:46:47.651
01:54:06.465 : en:01:54:06.465
[Профиль] [ЛС]
Показать сообщения:    

Текущее время: Сегодня 09:05

Часовой пояс: GMT



Вы не можете начинать темы
Вы не можете отвечать на сообщения
Вы не можете редактировать свои сообщения
Вы не можете удалять свои сообщения
Вы не можете голосовать в опросах
Вы не можете прикреплять файлы к сообщениям
Вы не можете скачивать файлы