Эверест / Everest (2015) WEB-DL 720p | iTunes

 
Автор Сообщение

BOSS ®

Пол:

Стаж: 2 года 1 месяц

Сообщений: 3738

Откуда: ODESSA



Награды: 20 (Подробнее)

Top Seeder 5 (Количество: 1) Top Seeder 2 (Количество: 1) Mega Seeder 1 (Количество: 1)
Торрент-статистика

Создавать темы 18-Ноя-2015 21:12

[Цитировать]

Информация о фильме
Название: Эверест
Оригинальное название: Everest
Год выхода: 2015
Жанр: триллер, драма, приключения
Режиссер: Бальтасар Кормакур
В ролях: Джейсон Кларк, Джош Бролин, Джон Хоукс, Робин Райт, Эмили Уотсон, Кира Найтли, Сэм Уортингтон, Джейк Джилленхол, Анг Фула Шерпа, Томас М. Райт
О фильме: Эверест — великая неприступная гора, покорить вершину которой мечтают многие профессиональные скалолазы. Одна из экспедиций на ее вершину закончилась настоящей трагедией, однако этот факт не останавливает отважных альпинистов.
Опытный инструктор Роб Холл, собрав группу из лучших альпинистов, собирается совершить восхождение на самую высокую вершину планеты. Все эти люди полны мужества и отваги и они не остановятся ни перед чем, пока не поднимутся на вершину Эвереста. Но даже если эта гора покорится им, смогут ли они вернуться обратно живыми и невредимыми?..


Выпущено: США, Великобритания, Исландия / Cross Creek Pictures, Free State Pictures, Universal Pictures, Walden Media, Working Title Films
Продолжительность: 02:01:11
Озвучивание: Дублированное [iTunes]
Файл
Формат: MKV
Качество: WEB-DL 720p
Видео: MPEG-4 AVC, 4011 kb/s, 1280x534
Аудио: AC3, 384 kb/s (6 ch)

MI

Format : Matroska
Format version : Version 4 / Version 2
File size : 3.80 GiB
Duration : 2h 1mn
Overall bit rate : 4 484 Kbps
Encoded date : UTC 2015-11-18 19:12:08
Writing application : mkvmerge v8.3.0 ('Over the Horizon') 64bit
Writing library : libebml v1.3.1 + libmatroska v1.4.2
Video
ID : 1
Format : AVC
Format/Info : Advanced Video Codec
Format profile : Main@L3.1
Format settings, CABAC : No
Format settings, ReFrames : 2 frames
Codec ID : V_MPEG4/ISO/AVC
Duration : 2h 1mn
Bit rate : 4 011 Kbps
Width : 1 280 pixels
Height : 534 pixels
Display aspect ratio : 2.40:1
Frame rate mode : Constant
Frame rate : 23.976 fps
Color space : YUV
Chroma subsampling : 4:2:0
Bit depth : 8 bits
Scan type : Progressive
Bits/(Pixel*Frame) : 0.245
Stream size : 3.39 GiB (89%)
Language : English
Default : Yes
Forced : No
Color range : Limited
Color primaries : BT.709
Transfer characteristics : BT.709
Matrix coefficients : BT.709
Audio
ID : 2
Format : AC-3
Format/Info : Audio Coding 3
Mode extension : CM (complete main)
Format settings, Endianness : Big
Codec ID : A_AC3
Duration : 2h 1mn
Bit rate mode : Constant
Bit rate : 384 Kbps
Channel(s) : 6 channels
Channel positions : Front: L C R, Side: L R, LFE
Sampling rate : 48.0 KHz
Bit depth : 16 bits
Compression mode : Lossy
Stream size : 333 MiB (9%)
Language : Russian
Default : Yes
Forced : No
Menu
00:00:00.000 : en:глава 1
00:05:14.000 : en:глава 2
00:09:38.000 : en:глава 3
00:15:15.000 : en:глава 4
00:21:00.000 : en:глава 5
00:26:32.000 : en:глава 6
00:33:17.000 : en:глава 7
00:40:25.000 : en:глава 8
00:47:25.000 : en:глава 9
00:52:16.000 : en:глава 10
00:57:51.000 : en:глава 11
01:01:56.000 : en:глава 12
01:07:24.000 : en:глава 13
01:15:42.000 : en:глава 14
01:21:05.000 : en:глава 15
01:27:01.000 : en:глава 16
01:32:41.000 : en:глава 17
01:41:22.000 : en:глава 18
01:46:49.000 : en:глава 19
01:54:06.000 : en:глава 20

Скриншоты

[Профиль] [ЛС]
Кто просматривает тему:

Форум Тема Автор Размер
Разная литература Анатолий Букреев, Г. Вестон ДеУолт - Эверест. Смертельное восхождение (2015) FB2 достали все 10 MB
Документальные HD Землетрясение на Эвересте / The Day Everest Shook (Dick Bower II) [2015, Документальный, HDTVRip 720p] TorrentFilm 1.43 GB
Фильмы (HD DVD, Blu-ray и BDRemux) Эверест / Everest (2015) BDRemux 1080p | Лицензия BOSS 25.42 GB
Фильмы (HD Rips | 720p, 1080p) Эверест / Everest (2015) BDRip 1080p | Лицензия BOSS 11.28 GB
Фильмы (HD Rips | 720p, 1080p) Эверест / Everest (2015) BDRip 720p | Лицензия sergej644 4.37 GB
Фильмы 2015 года Эверест / Everest (Бальтасар Кормакур / Baltasar Kormákur) [2015, США, Великобритания, Исландия, триллер, драма, приключения, BDRip-AVC] Dub + Original (Eng) + Sub (Rus, Eng, Ukr) TorrentFilm 2.18 GB
Фильмы 2015 года Эверест / Everest (Бальтасар Кормакур / Baltasar Kormákur) [2015, США, Великобритания, Исландия, триллер, драма, приключения, BDRip-AVC] Dub + Sub (Rus, Eng, Ukr) TorrentFilm 1.46 GB
Фильмы 2015 года Эверест / Everest (Бальтасар Кормакур / Baltasar Kormákur) [2015, США, Великобритания, Исландия, Триллер, драма, приключения, биография, история, BDRip-AVC] Dub + Sub Rus,Eng + Original Eng TorrentFilm 3.3 GB
Показать сообщения:    

Текущее время: Сегодня 00:16

Часовой пояс: GMT



Вы не можете начинать темы
Вы не можете отвечать на сообщения
Вы не можете редактировать свои сообщения
Вы не можете удалять свои сообщения
Вы не можете голосовать в опросах
Вы не можете прикреплять файлы к сообщениям
Вы не можете скачивать файлы