Щит и меч (1-4 из 4) (Владимир Басов)[1968,Военный,драма,DVDRip]

 
Автор Сообщение

sergej644 ®

Пол:

Стаж: 4 года 11 месяцев

Сообщений: 6044

Откуда: Soviet Union



Награды: Нет

Торрент-статистика

Создавать темы 29-Июл-2014 18:14

[Цитировать]

-Щит и меч (4 серии)- Информация о фильме
Название: Щит и меч
Год выхода: 1968
Страна: СССР
Студия: Мосфильм, Киностудия "Дефа", Старт
Перевод: Не требуется
Жанр: Военный,драма
Продолжительность: 01:18:54 + 01:42:24 + 01:13:18 + 01:10:44
Режиссер: Владимир Басов

В ролях:
Станислав Любшин, Владимир Басов, Юозас Будрайтис, Алла Демидова, Олег Янковский, Наталья Величко, Валентина Титова, Алексей Глазырин, Альгимантас Масюлис, Вацлав Дворжецкий, Николай Засухин, Людмила Чурсина, Николай Прокопович, Юрий Медведев, Михаил Погоржельский, Николай Граббе, Георгий Мартынюк, Валентин Смирнитский, Всеволод Сафонов, Игорь Ясулович, Лев Поляков, Ольга Жизнева, Валентина Ананьина, Инга Будкевич, Раднэр Муратов, Эдгар Ходжикян
О фильме:
Экранизация одноименного романа Вадима Кожевникова. Киноэпопея из четырёх фильмов:
Герой фильма - советский разведчик Александр Белов, выехавший в сороковом году в Германию под именем немца-репатрианта Иоганна Вайса, к сорок четвертому достиг прочного положения в абвере, дослужился до чина обер-лейтенанта и переведен в Берлин, в службу СС. Из самых первых рук он будет получать ценнейшие сведения...
-премьера (мир): 19 августа 1968 года
зрители: 68,2 млн
-

1 фильм - Без права быть собой

-Без права быть собой-Кодек: XviD (AVI)
Качество: DVDRip
Video: 704x304 (2.32:1), 25 fps, XviD build 63 ~1108 kbps avg, 0.21 bit/pixel
Audio: 48 kHz, AC3 Dolby Digital, 1/0 (C) ch, ~128 kbps
- -

MI

Общее
Полное имя                       : T:\torrent files\Schit.i.Mech_1-4\Schit.i.mech_1.avi
Формат                           : AVI
Формат/Информация                : Audio Video Interleave
Размер файла                     : 701 Мбайт
Продолжительность                : 1 ч. 18 м.
Общий поток                      : 1243 Кбит/сек
Программа кодирования            : VirtualDubMod 1.5.4.1 (build 2178/release)
Библиотека кодирования           : VirtualDubMod build 2178/release
Видео
Идентификатор                    : 0
Формат                           : MPEG-4 Visual
Профиль формата                  : Advanced Simple@L5
Параметр BVOP формата            : 1
Параметр QPel формата            : Нет
Параметр GMC формата             : Без точки перехода
Параметр матрицы формата         : Выборочная
Идентификатор кодека             : XVID
Идентификатор кодека/Подсказка   : XviD
Продолжительность                : 1 ч. 18 м.
Битрейт                          : 1108 Кбит/сек
Ширина                           : 704 пикселя
Высота                           : 304 пикселя
Соотношение сторон               : 2,35:1
Частота кадров                   : 25,000 кадров/сек
Цветовое пространство            : YUV
Субдискретизация насыщенности    : 4:2:0
Битовая глубина                  : 8 бит
Тип развёртки                    : Прогрессивная
Метод сжатия                     : С потерями
Бит/(Пиксели*Кадры)              : 0.207
Размер потока                    : 625 Мбайт (89%)
Библиотека кодирования           : XviD 63
Аудио
Идентификатор                    : 1
Формат                           : AC-3
Формат/Информация                : Audio Coding 3
Расширение режима                : CM (complete main)
Идентификатор кодека             : 2000
Продолжительность                : 1 ч. 18 м.
Вид битрейта                     : Постоянный
Битрейт                          : 128 Кбит/сек
Каналы                           : 1 канал
Расположение каналов             : Front: C
Частота                          : 48,0 КГц
Битовая глубина                  : 16 бит
Метод сжатия                     : С потерями
Задержка видео                   : 527 мс.
Размер потока                    : 72,2 Мбайт (10%)
Выравнивание                     : Разделение по промежуткам
Продолжительность промежутка     : 96  мс. (2,40 видеокадра)
Время предзагрузки промежутка    : 96  мс.
Язык                             : Russian
-
-

2 фильм - Приказано выжить...

-Приказано выжить...-Кодек: XviD (AVI)
Качество: DVDRip
Video: 704x304 (2.32:1), 25 fps, XviD build 63 ~822 kbps avg, 0.15 bit/pixel
Audio: 48 kHz, AC3 Dolby Digital, 1/0 (C) ch, ~128 kbps
- -

MI

Общее
Полное имя                       : T:\torrent files\Schit.i.Mech_1-4\Schit.i.mech_2.avi
Формат                           : AVI
Формат/Информация                : Audio Video Interleave
Размер файла                     : 701 Мбайт
Продолжительность                : 1 ч. 42 м.
Общий поток                      : 957 Кбит/сек
Программа кодирования            : VirtualDubMod 1.5.4.1 (build 2178/release)
Библиотека кодирования           : VirtualDubMod build 2178/release
Видео
Идентификатор                    : 0
Формат                           : MPEG-4 Visual
Профиль формата                  : Advanced Simple@L5
Параметр BVOP формата            : 1
Параметр QPel формата            : Нет
Параметр GMC формата             : Без точки перехода
Параметр матрицы формата         : Выборочная
Идентификатор кодека             : XVID
Идентификатор кодека/Подсказка   : XviD
Продолжительность                : 1 ч. 42 м.
Битрейт                          : 823 Кбит/сек
Ширина                           : 704 пикселя
Высота                           : 304 пикселя
Соотношение сторон               : 2,35:1
Частота кадров                   : 25,000 кадров/сек
Цветовое пространство            : YUV
Субдискретизация насыщенности    : 4:2:0
Битовая глубина                  : 8 бит
Тип развёртки                    : Прогрессивная
Метод сжатия                     : С потерями
Бит/(Пиксели*Кадры)              : 0.154
Размер потока                    : 602 Мбайт (86%)
Библиотека кодирования           : XviD 63
Аудио
Идентификатор                    : 1
Формат                           : AC-3
Формат/Информация                : Audio Coding 3
Расширение режима                : CM (complete main)
Идентификатор кодека             : 2000
Продолжительность                : 1 ч. 42 м.
Вид битрейта                     : Постоянный
Битрейт                          : 128 Кбит/сек
Каналы                           : 1 канал
Расположение каналов             : Front: C
Частота                          : 48,0 КГц
Битовая глубина                  : 16 бит
Метод сжатия                     : С потерями
Размер потока                    : 93,7 Мбайт (13%)
Выравнивание                     : Разделение по промежуткам
Продолжительность промежутка     : 96  мс. (2,40 видеокадра)
Время предзагрузки промежутка    : 96  мс.
Язык                             : Russian
-
-

3 фильм - Обжалованию не подлежит

-Обжалованию не подлежит-Кодек: XviD (AVI)
Качество: DVDRip
Video: 704x304 (2.32:1), 25 fps, XviD build 63 ~1203 kbps avg, 0.23 bit/pixel
Audio: 48 kHz, AC3 Dolby Digital, 1/0 (C) ch, ~128 kbps
- -

MI

Общее
Полное имя                       : T:\torrent files\Schit.i.Mech_1-4\Schit.i.mech_3.avi
Формат                           : AVI
Формат/Информация                : Audio Video Interleave
Размер файла                     : 701 Мбайт
Продолжительность                : 1 ч. 13 м.
Общий поток                      : 1338 Кбит/сек
Программа кодирования            : VirtualDubMod 1.5.4.1 (build 2178/release)
Библиотека кодирования           : VirtualDubMod build 2178/release
Видео
Идентификатор                    : 0
Формат                           : MPEG-4 Visual
Профиль формата                  : Advanced Simple@L5
Параметр BVOP формата            : 1
Параметр QPel формата            : Нет
Параметр GMC формата             : Без точки перехода
Параметр матрицы формата         : Выборочная
Идентификатор кодека             : XVID
Идентификатор кодека/Подсказка   : XviD
Продолжительность                : 1 ч. 13 м.
Битрейт                          : 1203 Кбит/сек
Ширина                           : 704 пикселя
Высота                           : 304 пикселя
Соотношение сторон               : 2,35:1
Частота кадров                   : 25,000 кадров/сек
Цветовое пространство            : YUV
Субдискретизация насыщенности    : 4:2:0
Битовая глубина                  : 8 бит
Тип развёртки                    : Прогрессивная
Метод сжатия                     : С потерями
Бит/(Пиксели*Кадры)              : 0.225
Размер потока                    : 631 Мбайт (90%)
Библиотека кодирования           : XviD 63
Аудио
Идентификатор                    : 1
Формат                           : AC-3
Формат/Информация                : Audio Coding 3
Расширение режима                : CM (complete main)
Идентификатор кодека             : 2000
Продолжительность                : 1 ч. 13 м.
Вид битрейта                     : Постоянный
Битрейт                          : 128 Кбит/сек
Каналы                           : 1 канал
Расположение каналов             : Front: C
Частота                          : 48,0 КГц
Битовая глубина                  : 16 бит
Метод сжатия                     : С потерями
Размер потока                    : 67,1 Мбайт (10%)
Выравнивание                     : Разделение по промежуткам
Продолжительность промежутка     : 96  мс. (2,40 видеокадра)
Время предзагрузки промежутка    : 96  мс.
Язык                             : Russian
-
-

4 фильм - Последний рубеж

-Последний рубеж-Кодек: XviD (AVI)
Качество: DVDRip
Video: 720x304 (2.37:1), 25 fps, XviD build 63 ~1251 kbps avg, 0.23 bit/pixel
Audio: 48 kHz, AC3 Dolby Digital, 1/0 (C) ch, ~128 kbps
- -

MI

Общее
Полное имя                       : T:\torrent files\Schit.i.Mech_1-4\Schit.i.mech_4.avi
Формат                           : AVI
Формат/Информация                : Audio Video Interleave
Размер файла                     : 701 Мбайт
Продолжительность                : 1 ч. 10 м.
Общий поток                      : 1386 Кбит/сек
Программа кодирования            : VirtualDubMod 1.5.4.1 (build 2178/release)
Библиотека кодирования           : VirtualDubMod build 2178/release
Видео
Идентификатор                    : 0
Формат                           : MPEG-4 Visual
Профиль формата                  : Advanced Simple@L5
Параметр BVOP формата            : 1
Параметр QPel формата            : Нет
Параметр GMC формата             : Без точки перехода
Параметр матрицы формата         : Выборочная
Идентификатор кодека             : XVID
Идентификатор кодека/Подсказка   : XviD
Продолжительность                : 1 ч. 10 м.
Битрейт                          : 1251 Кбит/сек
Ширина                           : 720 пикселей
Высота                           : 304 пикселя
Соотношение сторон               : 2,35:1
Частота кадров                   : 25,000 кадров/сек
Цветовое пространство            : YUV
Субдискретизация насыщенности    : 4:2:0
Битовая глубина                  : 8 бит
Тип развёртки                    : Прогрессивная
Метод сжатия                     : С потерями
Бит/(Пиксели*Кадры)              : 0.229
Размер потока                    : 633 Мбайт (90%)
Библиотека кодирования           : XviD 63
Аудио
Идентификатор                    : 1
Формат                           : AC-3
Формат/Информация                : Audio Coding 3
Расширение режима                : CM (complete main)
Идентификатор кодека             : 2000
Продолжительность                : 1 ч. 10 м.
Вид битрейта                     : Постоянный
Битрейт                          : 128 Кбит/сек
Каналы                           : 1 канал
Расположение каналов             : Front: C
Частота                          : 48,0 КГц
Битовая глубина                  : 16 бит
Метод сжатия                     : С потерями
Размер потока                    : 64,8 Мбайт (9%)
Выравнивание                     : Разделение по промежуткам
Продолжительность промежутка     : 96  мс. (2,40 видеокадра)
Время предзагрузки промежутка    : 96  мс.
Язык                             : Russian
-
-- --
[Профиль] [ЛС]

Создавать темы 06-Авг-2015 22:04 (спустя 1 год)

Топик был перенесен из форума Кино СССР в форум Кино СССР
sergej644
 
Кто просматривает тему:

Показать сообщения:    

Текущее время: Сегодня 12:10

Часовой пояс: GMT



Вы не можете начинать темы
Вы не можете отвечать на сообщения
Вы не можете редактировать свои сообщения
Вы не можете удалять свои сообщения
Вы не можете голосовать в опросах
Вы не можете прикреплять файлы к сообщениям
Вы не можете скачивать файлы