Щен из созвездия Гончих псов (Эдуард Гаврилов) [1991, СССР, Комедия, мелодрама, детский, DVD5] Original Rus

 
Автор Сообщение

TorrentFilm ®

Пол:

Стаж: 2 года

Сообщений: 7741



Награды: Нет

Торрент-статистика

Создавать темы 02-Янв-2016 00:00

[Цитировать]

Щен из созвездия Гончих псов
Страна: СССР
Студия: Творческое объединение "Ладья"
Жанр: Комедия, мелодрама, детский
Год выпуска: 1991
Продолжительность: 01:09:05
Перевод: Не требуется
Cубтитры: нет
Оригинальная аудиодорожка: русский
Режиссер: Эдуард Гаврилов
В ролях: Евгения Добровольская, Александр Лазарев ст., Спартак Мишулин, Валерий Носик, Николай Парфенов, Любовь Полищук, Виктор Филиппов, Валентин Смирнитский, Борис Шувалов, Александр Лазарев мл., Инна Выходцева, Марина Устименко
Описание: В созвездии Гончих Псов исчезла звезда и в этот миг на Земле в российском провинциальном городишке появился щенок. Чтобы не пропасть в новом для него мире, он нашел себе хозяина - добродушного начинающего журналиста Солдатова. Щенок увязался за несчастным Солдатовым, назвав его Рыжиком, а Рыжик назвал песика Щеном. Молодым специалистом Солдатовым были очень недовольны на работе, в местной газете. Но когда Солдатов-Рыжик пришел на работу с Щеном, отношение к нему сразу изменилось в лучшую сторону. Почему-то все сразу полюбили Щена и перестали ненавидеть - не только Солдатова, но и жизнь вообще. И только главный редактор невзлюбил Щена, потому что собак он вообще терпеть не мог.
Доп. информация: Дистрибьютор: DVD Land
Меню: анимированное / озвученное
Сэмпл: http://multi-up.com/773281
Тип релиза: DVD5
Контейнер: DVD-Video
Видео: MPEG2 Video 720x576 (4:3) 25.000fps VBR ~ 7 712 kbps avg
Аудио: Dolby AC3 48000Hz 6ch 384Kbps [AC-3] русский

MediaInfo

General
Complete name : F:\Schen.iz.sozvezdija.Gonchih.psov.1991.DVD-5\VIDEO_TS\VIDEO_TS.BUP
Format : DVD Video
Format profile : Menu
File size : 14.0 KiB
Video
ID : 0xE0
Format : MPEG Video
Format version : Version 2
Bit rate mode : Variable
Width : 720 pixels
Height : 576 pixels
Display aspect ratio : 4/3
Frame rate : 25.000 fps
Standard : PAL
Audio
Format : AC-3
Format/Info : Audio Coding 3
Channel(s) : 2 channels
Sampling rate : 48.0 KHz
Text
Format : RLE
Format/Info : Run-length encoding
Resolution : 2 bits
General
Complete name : F:\Schen.iz.sozvezdija.Gonchih.psov.1991.DVD-5\VIDEO_TS\VIDEO_TS.IFO
Format : DVD Video
Format profile : Menu
File size : 14.0 KiB
Video
ID : 0xE0
Format : MPEG Video
Format version : Version 2
Bit rate mode : Variable
Width : 720 pixels
Height : 576 pixels
Display aspect ratio : 4/3
Frame rate : 25.000 fps
Standard : PAL
Audio
Format : AC-3
Format/Info : Audio Coding 3
Channel(s) : 2 channels
Sampling rate : 48.0 KHz
Text
Format : RLE
Format/Info : Run-length encoding
Resolution : 2 bits
General
Complete name : F:\Schen.iz.sozvezdija.Gonchih.psov.1991.DVD-5\VIDEO_TS\VIDEO_TS.VOB
Format : MPEG-PS
File size : 230 MiB
Duration : 1mn 30s
Overall bit rate : 21.4 Mbps
Writing library : encoded by TMPGEnc (ver. 2.50.32.120)
Video
ID : 224 (0xE0)
Format : MPEG Video
Format version : Version 2
Format profile : Main@Main
Format settings, Matrix : Default
Duration : 1mn 30s
Bit rate mode : Variable
Bit rate : 20.4 Mbps
Width : 720 pixels
Height : 576 pixels
Display aspect ratio : 4/3
Frame rate : 25.000 fps
Standard : PAL
Colorimetry : 4:2:0
Scan type : Interlaced
Scan order : Bottom Field First
Bits/(Pixel*Frame) : 1.963
Stream size : 218 MiB (95%)
Writing library : TMPGEnc 2.50.32.120
Audio
ID : 128 (0x80)
Format : AC-3
Format/Info : Audio Coding 3
Duration : 1mn 30s
Bit rate mode : Constant
Bit rate : 192 Kbps
Channel(s) : 2 channels
Channel positions : L R
Sampling rate : 48.0 KHz
Stream size : 2.06 MiB (1%)
Menu
Format : DVD-Video
General
Complete name : F:\Schen.iz.sozvezdija.Gonchih.psov.1991.DVD-5\VIDEO_TS\VTS_01_0.BUP
Format : DVD Video
Format profile : Program
File size : 58.0 KiB
Video
ID : 0xE0
Format : MPEG Video
Format version : Version 2
Bit rate mode : Variable
Width : 720 pixels
Height : 576 pixels
Display aspect ratio : 4/3
Frame rate : 25.000 fps
Standard : PAL
Audio
ID : 0x80
Format : AC-3
Format/Info : Audio Coding 3
Channel(s) : 6 channels
Sampling rate : 48.0 KHz
Language : Russian
Menu
List (Audio) : 0
General
Complete name : F:\Schen.iz.sozvezdija.Gonchih.psov.1991.DVD-5\VIDEO_TS\VTS_01_0.IFO
Format : DVD Video
Format profile : Program
File size : 58.0 KiB
Video
ID : 0xE0
Format : MPEG Video
Format version : Version 2
Bit rate mode : Variable
Width : 720 pixels
Height : 576 pixels
Display aspect ratio : 4/3
Frame rate : 25.000 fps
Standard : PAL
Audio
ID : 0x80
Format : AC-3
Format/Info : Audio Coding 3
Channel(s) : 6 channels
Sampling rate : 48.0 KHz
Language : Russian
Menu
List (Audio) : 0
General
Complete name : F:\Schen.iz.sozvezdija.Gonchih.psov.1991.DVD-5\VIDEO_TS\VTS_01_0.VOB
Format : MPEG-PS
File size : 79.8 MiB
Video
ID : 224 (0xE0)
Format : MPEG Video
Format version : Version 2
Format profile : Main@Main
Format settings, Matrix : Default
Bit rate mode : Constant
Bit rate : 8 000 Kbps
Width : 720 pixels
Height : 576 pixels
Display aspect ratio : 4/3
Frame rate : 25.000 fps
Standard : PAL
Colorimetry : 4:2:0
Scan type : Progressive
Scan order : Top Field First
Bits/(Pixel*Frame) : 0.772
Text
ID : 32 (0x20)
Format : RLE
Format/Info : Run-length encoding
Menu
Format : DVD-Video
General
Complete name : F:\Schen.iz.sozvezdija.Gonchih.psov.1991.DVD-5\VIDEO_TS\VTS_01_1.VOB
Format : MPEG-PS
File size : 1 024 MiB
Duration : 18mn 33s
Overall bit rate : 7 712 Kbps
Video
ID : 224 (0xE0)
Format : MPEG Video
Format version : Version 2
Format profile : Main@Main
Format settings, Matrix : Default
Duration : 18mn 33s
Bit rate mode : Constant
Bit rate : 7 021 Kbps
Nominal bit rate : 7 200 Kbps
Width : 720 pixels
Height : 576 pixels
Display aspect ratio : 4/3
Frame rate : 25.000 fps
Standard : PAL
Colorimetry : 4:2:0
Scan type : Interlaced
Scan order : Top Field First
Bits/(Pixel*Frame) : 0.677
Stream size : 932 MiB (91%)
Audio
ID : 128 (0x80)
Format : AC-3
Format/Info : Audio Coding 3
Duration : 18mn 33s
Bit rate mode : Constant
Bit rate : 384 Kbps
Channel(s) : 6 channels
Channel positions : Front: L C R, Surround: L R, LFE
Sampling rate : 48.0 KHz
Video delay : -80ms
Stream size : 51.0 MiB (5%)
Menu
Format : DVD-Video
General
Complete name : F:\Schen.iz.sozvezdija.Gonchih.psov.1991.DVD-5\VIDEO_TS\VTS_01_2.VOB
Format : MPEG-PS
File size : 1 024 MiB
Duration : 18mn 33s
Overall bit rate : 7 712 Kbps
Video
ID : 224 (0xE0)
Format : MPEG Video
Format version : Version 2
Format profile : Main@Main
Format settings, Matrix : Default
Duration : 18mn 33s
Bit rate mode : Constant
Bit rate : 7 022 Kbps
Nominal bit rate : 7 200 Kbps
Width : 720 pixels
Height : 576 pixels
Display aspect ratio : 4/3
Frame rate : 25.000 fps
Standard : PAL
Colorimetry : 4:2:0
Scan type : Interlaced
Scan order : Top Field First
Bits/(Pixel*Frame) : 0.677
Stream size : 932 MiB (91%)
Audio
ID : 128 (0x80)
Format : AC-3
Format/Info : Audio Coding 3
Duration : 18mn 33s
Bit rate mode : Constant
Bit rate : 384 Kbps
Channel(s) : 6 channels
Channel positions : Front: L C R, Surround: L R, LFE
Sampling rate : 48.0 KHz
Video delay : -272ms
Stream size : 51.0 MiB (5%)
Menu
Format : DVD-Video
General
Complete name : F:\Schen.iz.sozvezdija.Gonchih.psov.1991.DVD-5\VIDEO_TS\VTS_01_3.VOB
Format : MPEG-PS
File size : 1 024 MiB
Duration : 18mn 33s
Overall bit rate : 7 713 Kbps
Video
ID : 224 (0xE0)
Format : MPEG Video
Format version : Version 2
Format profile : Main@Main
Format settings, Matrix : Default
Duration : 18mn 33s
Bit rate mode : Constant
Bit rate : 7 022 Kbps
Nominal bit rate : 7 200 Kbps
Width : 720 pixels
Height : 576 pixels
Display aspect ratio : 4/3
Frame rate : 25.000 fps
Standard : PAL
Colorimetry : 4:2:0
Scan type : Interlaced
Scan order : Top Field First
Bits/(Pixel*Frame) : 0.677
Stream size : 932 MiB (91%)
Audio
ID : 128 (0x80)
Format : AC-3
Format/Info : Audio Coding 3
Duration : 18mn 33s
Bit rate mode : Constant
Bit rate : 384 Kbps
Channel(s) : 6 channels
Channel positions : Front: L C R, Surround: L R, LFE
Sampling rate : 48.0 KHz
Video delay : -272ms
Stream size : 51.0 MiB (5%)
Menu
Format : DVD-Video
General
Complete name : F:\Schen.iz.sozvezdija.Gonchih.psov.1991.DVD-5\VIDEO_TS\VTS_01_4.VOB
Format : MPEG-PS
File size : 740 MiB
Duration : 13mn 24s
Overall bit rate : 7 711 Kbps
Video
ID : 224 (0xE0)
Format : MPEG Video
Format version : Version 2
Format profile : Main@Main
Format settings, Matrix : Default
Duration : 13mn 24s
Bit rate mode : Constant
Bit rate : 7 021 Kbps
Nominal bit rate : 7 200 Kbps
Width : 720 pixels
Height : 576 pixels
Display aspect ratio : 4/3
Frame rate : 25.000 fps
Standard : PAL
Colorimetry : 4:2:0
Scan type : Interlaced
Scan order : Top Field First
Bits/(Pixel*Frame) : 0.677
Stream size : 674 MiB (91%)
Audio
ID : 128 (0x80)
Format : AC-3
Format/Info : Audio Coding 3
Duration : 13mn 24s
Bit rate mode : Constant
Bit rate : 384 Kbps
Channel(s) : 6 channels
Channel positions : Front: L C R, Surround: L R, LFE
Sampling rate : 48.0 KHz
Video delay : -272ms
Stream size : 36.8 MiB (5%)
Menu
Format : DVD-Video

DVDInfo

Title:
Size: 4.02 Gb ( 4 219 754 KBytes ) - DVD-5
Enabled regions: 1, 2, 3, 4, 5, 6, 8
VTS_01 :
Play Length: 01:09:05
Video: PAL 4:3 (720x576) VBR
Audio:
Russian (Dolby AC3, 6 ch)
Menu Video:
PAL 4:3 (720x576) VBR
Menu Audio:
Not specified (Dolby AC3, 2 ch)
Menu Subtitles:
Not specified
Menu English Language Unit :
Root Menu
Angle menu

Скриншоты меню

Скриншоты

[Профиль] [ЛС]
Кто просматривает тему:

Показать сообщения:    

Текущее время: Сегодня 04:23

Часовой пояс: GMT



Вы не можете начинать темы
Вы не можете отвечать на сообщения
Вы не можете редактировать свои сообщения
Вы не можете удалять свои сообщения
Вы не можете голосовать в опросах
Вы не можете прикреплять файлы к сообщениям
Вы не можете скачивать файлы