Шёпот / The Whispers [S01] (2015) WEB-DL 1080p | LostFilm, NewStudio, BaibaKo, Nevafilm

 
Автор Сообщение

Russian Mafia ®

Пол:

Стаж: 1 год 8 месяцев

Сообщений: 4257



Награды: 10 (Подробнее)

Top Releaser 2 (Количество: 1) Top Releaser 4 (Количество: 1) Mega Seeder 2 (Количество: 1)
Торрент-статистика

Создавать темы 15-Сен-2015 10:06

[Цитировать]

Информация о фильме
Название: Шёпот
Оригинальное название: The Whispers
Год выхода: 2015
Жанр: фантастика, триллер, драма
Режиссер: Чарльз Бисон, П.Дж. Пеше, Холли Дэйл
В ролях: Тейт Бёрчмор, Бэрри Слоун, Лили Рэйб, Кайли Роджерс, Кайл Харрисон Брейткопф, Дэвид Эндрюс, Эбби Райдер Фортсон, Джеймисон Джонс, Майло Вентимилья и др
О фильме:
Инопланетные силы проникают в правительство США и вызывают хаос, при этом остаются незамеченными. Правительственным агентам удается выяснить, что пришельцы используют для воплощения своих целей самое дорогое, что у нас есть — детей…

Страна: CША
Продолжительность: ~ 00:43:00 серия
Перевод:
Профессиональный (многоголосый закадровый) LostFilm
Профессиональный (многоголосый закадровый) NewStudio
Любительский (многоголосый закадровый) BaibaKo
Профессиональный (дублированный) Nevafilm
Файл
Кодек: AVC/H.264
Качество: WEB-DL 1080p
Видео: AVC, 1920x1080(1.778:1), 23.976 fps, ~5000 kbps, 0.183 bit/pixel
Звук:
Аудио rus: AC-3, 48 KHz, 6 ch, 384 kbps | LostFilm
Аудио rus: AC-3, 48 KHz, 6 ch, 384 kbps | NewStudio
Аудио rus: AC-3, 48 KHz, 6 ch, 384 kbps | BaibaKo
Аудио rus: AC-3, 48 KHz, 2 ch, 192 kbps | Nevafilm
Аудио eng: AC-3, 48 KHz, 6 ch, 384 kbps | original
Субтитры: Русский (форсированные), английский
Семпл

Релиз:

Монтаж, обработка релиза: Skyns61
Работа со звуком LostFilm: k-marat-s
запись Nevafilm (дубляж): BS666 и SerGV

Список серий:

01. Видишь, крестик нарисован /X Marks the Spot
02. Прятки /Hide & Seek
03. Столкновение /Collision
04. Катастрофа /Meltdown
05. Если копать глубже /What Lies Beneath
06. Стрелец /The Archer
07. Чего бы это ни стоило /Whatever It Takes
08. Опустошённый /A Hollow Man
09. Сломленное дитя /Broken Child
10. Худшие опасения /Darkest Fears
11. Тоска по дому /Homesick
12. Путник в сумраке ночей /Traveller in the Dark
13. Игра окончена /Game Over

MediaInfo:

Общее
Уникальный идентификатор : 241718819795173711954145271372980857635 (0xB5D959EFE196B3DC946087D76496AB23)
Полное имя : F:FilmsThe.Whispers.S01.WEB-DL.1080pThe.Whispers.S01E01.WEB-DL.1080p.4xRus.Eng.DD5.1.mkv
Формат : Matroska
Версия формата : Version 4 / Version 2
Размер файла : 1,99 Гбайт
Продолжительность : 42 м.
Общий поток : 6777 Кбит/сек
Дата кодирования : UTC 2015-07-02 03:17:49
Программа кодирования : mkvmerge v8.1.0 ('Psychedelic Postcard') 64bit
Библиотека кодирования : libebml v1.3.1 + libmatroska v1.4.2
DURATION : 00:42:02.400000000
NUMBER_OF_FRAMES : 78825
NUMBER_OF_BYTES : 60537600
_STATISTICS_WRITING_APP : mkvmerge v8.1.0 ('Psychedelic Postcard') 64bit
_STATISTICS_WRITING_DATE_UTC : 2015-07-02 03:17:49
_STATISTICS_TAGS : BPS DURATION NUMBER_OF_FRAMES NUMBER_OF_BYTES
Видео
Идентификатор : 1
Формат : AVC
Формат/Информация : Advanced Video Codec
Профиль формата : High@L4
Параметр CABAC формата : Да
Параметр ReFrames формата : 4 кадра
Идентификатор кодека : V_MPEG4/ISO/AVC
Продолжительность : 42 м.
Битрейт : 4914 Кбит/сек
Ширина : 1920 пикселей
Высота : 1080 пикселей
Соотношение сторон : 16:9
Режим частоты кадров : Постоянный
Частота кадров : 23,976 кадра/сек
Цветовое пространство : YUV
Субдискретизация насыщенности : 4:2:0
Битовая глубина : 8 бит
Тип развёртки : Прогрессивная
Бит/(Пиксели*Кадры) : 0.099
Размер потока : 1,44 Гбайт (73%)
Язык : English
Default : Нет
Forced : Нет
Цветовой диапазон : Limited
Основные цвета : BT.709
Характеристики трансфера : BT.709
Коэффициенты матрицы : BT.709
Аудио #1
Идентификатор : 2
Формат : AC-3
Формат/Информация : Audio Coding 3
Расширение режима : CM (complete main)
Параметр Endianness формата : Big
Идентификатор кодека : A_AC3
Продолжительность : 42 м.
Вид битрейта : Постоянный
Битрейт : 384 Кбит/сек
Каналы : 6 каналов
Расположение каналов : Front: L C R, Side: L R, LFE
Частота : 48,0 КГц
Метод сжатия : С потерями
Размер потока : 115 Мбайт (6%)
Заголовок : LostFilm 5.1
Язык : Russian
Default : Да
Forced : Нет
Аудио #2
Идентификатор : 3
Формат : AC-3
Формат/Информация : Audio Coding 3
Расширение режима : CM (complete main)
Параметр Endianness формата : Big
Идентификатор кодека : A_AC3
Продолжительность : 42 м.
Вид битрейта : Постоянный
Битрейт : 384 Кбит/сек
Каналы : 6 каналов
Расположение каналов : Front: L C R, Side: L R, LFE
Частота : 48,0 КГц
Метод сжатия : С потерями
Размер потока : 115 Мбайт (6%)
Заголовок : NewStudio 5.1
Язык : Russian
Default : Нет
Forced : Нет
Аудио #3
Идентификатор : 4
Формат : AC-3
Формат/Информация : Audio Coding 3
Расширение режима : CM (complete main)
Параметр Endianness формата : Big
Идентификатор кодека : A_AC3
Продолжительность : 42 м.
Вид битрейта : Постоянный
Битрейт : 384 Кбит/сек
Каналы : 6 каналов
Расположение каналов : Front: L C R, Side: L R, LFE
Частота : 48,0 КГц
Метод сжатия : С потерями
Размер потока : 115 Мбайт (6%)
Заголовок : BaibaKo 5.1
Язык : Russian
Default : Нет
Forced : Нет
Аудио #4
Идентификатор : 5
Формат : AC-3
Формат/Информация : Audio Coding 3
Расширение режима : CM (complete main)
Параметр Endianness формата : Big
Идентификатор кодека : A_AC3
Продолжительность : 42 м.
Вид битрейта : Постоянный
Битрейт : 192 Кбит/сек
Каналы : 2 канала
Расположение каналов : Front: L R
Частота : 48,0 КГц
Метод сжатия : С потерями
Размер потока : 57,7 Мбайт (3%)
Заголовок : Nevafilm
Язык : Russian
Default : Нет
Forced : Нет
Аудио #5
Идентификатор : 6
Формат : AC-3
Формат/Информация : Audio Coding 3
Расширение режима : CM (complete main)
Параметр Endianness формата : Big
Идентификатор кодека : A_AC3
Продолжительность : 42 м.
Вид битрейта : Постоянный
Битрейт : 384 Кбит/сек
Каналы : 6 каналов
Расположение каналов : Front: L C R, Side: L R, LFE
Частота : 48,0 КГц
Метод сжатия : С потерями
Размер потока : 115 Мбайт (6%)
Заголовок : original 5.1
Язык : English
Default : Нет
Forced : Нет
Текст #1
Идентификатор : 7
Формат : ASS
Идентификатор кодека : S_TEXT/ASS
Идентификатор кодека/Информация : Advanced Sub Station Alpha
Метод сжатия : Без потерь
Заголовок : force rus
Язык : Russian
Default : Да
Forced : Да
Текст #2
Идентификатор : 8
Формат : UTF-8
Идентификатор кодека : S_TEXT/UTF8
Идентификатор кодека/Информация : UTF-8 Plain Text
Заголовок : CC
Язык : English
Default : Нет
Forced : Нет

Скриншоты

Релиз от: Skyns61
[Профиль] [ЛС]
Показать сообщения:    

Текущее время: Сегодня 04:26

Часовой пояс: GMT



Вы не можете начинать темы
Вы не можете отвечать на сообщения
Вы не можете редактировать свои сообщения
Вы не можете удалять свои сообщения
Вы не можете голосовать в опросах
Вы не можете прикреплять файлы к сообщениям
Вы не можете скачивать файлы