Шaг впeрёд: Вcё или ничeго в 3Д / Stеp Up Аll In 3D (Тpиш Cи / Тrish Siе) [2014, Драма, Мелодрама, Музыка, BDrip-AVC] iTunes, Half OverUnder / Вертикальная анаморфная стереопара

 
Автор Сообщение

TorrentFilm ®

Пол:

Стаж: 2 года

Сообщений: 7741



Награды: Нет

Торрент-статистика

Создавать темы 30-Дек-2014 00:00

[Цитировать]

-Шаг вперёд: Всё или ничего
Step Up All In

Год выпуска: 2014
Страна: США (Summit Entertainment, Offspring Entertainment)
Жанр: Драма, Мелодрама, Музыка
Продолжительность: 1:51:52
Перевод: Профессиональный дублированный - iTunes
Режиссер: Триш Си / Trish Sie-Роли исполняли (дублировали):

Sean - Райан Гузман (Александр Гаврилин)
Andie - Бриана Эвиган (Татьяна Шитова)
Jason - Стивен Босс (Иван Жарков)
Eddy - Миша Гэбриел Хэмилтон (Денис Яковлев)
Alexxa Brava - Изабелла Мико (Ирина Киреева)
Camille - Элисон Стоунер (Мария Иващенко)
Moose - Адам Дж. Севани (Прохор Чеховской)
Jasper - Стивен Стево Джонс (Станислав Тикунов)
Chad - Дэвид Шрейбман (Вадим Медведев)
Jenny Kido - Мари Кода (Вероника Саркисова)
Hair - Кристофер Скотт (Николай Быстров)
-Описание: В переливающемся огнями Лас-Вегасе лучшие танцоры планеты сойдутся в батле, который решит все. Талантливый самоучка Шон и красотка Энди, мечтающие о славе и богатстве, примут участие в популярном реалити-шоу и бросят вызов «непобедимым» командам противников, а главное — самим себе. Смогут ли они преодолеть страх, пережить предательство и обуздать страсть, чтобы стать первыми и осуществить свои мечты?-Премьера: 9 июля 2014 (17 июля 2014)
Релиз на DVD (Россия): 16 декабря 2014
Кассовые сборы: $86 165 646

. .
-Качество: BDRip (by Ash61)
Контейнер: MKV
Формат 3D: Half OverUnder / Вертикальная анаморфная стереопара
Порядок ракурсов: левый ракурс первый
Видео кодек: x264
Аудио кодек: AC3-Видео: AVC / 23,976 fps / 1920х1080p / 16.3 Mbps
Аудио:
#1 - Русский / AC3 / 48 KHz / 5.1 ch / 384 Kbps (Дубляж - iTunes)
#2 - Английский / AC3 / 48 KHz / 5.1 ch / 640 Kbps (Original - BD 3D)
Субтитры: Отсутствуют

MediaInfo

General
Unique ID : 221285487928035653429321887644176426931 (0xA67A08E51B6024839A8C24BB846D27B3)
Complete name : E:\StepUpAllIn(2014)3D-halfOU(Ash61)iTunes.mkv
Format : Matroska
Format version : Version 2
File size : 13.8 GiB
Duration : 1h 51mn
Overall bit rate : 17.7 Mbps
Movie name : Шаг вперёд: Всё или ничего / Step Up All In (2014) 3D
Encoded date : UTC 2014-11-28 18:59:41
Writing application : mkvmerge v5.8.0 ('No Sleep / Pillow') built on Sep 2 2012 15:37:04
Writing library : libebml v1.2.3 + libmatroska v1.3.0
Video
ID : 1
Format : AVC
Format/Info : Advanced Video Codec
Format profile : High@L4.1
Format settings, CABAC : Yes
Format settings, ReFrames : 4 frames
Codec ID : V_MPEG4/ISO/AVC
Duration : 1h 51mn
Bit rate : 16.3 Mbps
Width : 1 920 pixels
Height : 1 080 pixels
Display aspect ratio : 16:9
Frame rate mode : Constant
Frame rate : 23.976 fps
Color space : YUV
Chroma subsampling : 4:2:0
Bit depth : 8 bits
Scan type : Progressive
Bits/(Pixel*Frame) : 0.329
Stream size : 12.8 GiB (92%)
Title : BDRip by Ash61
Writing library : x264 core 138 r2358 9e941d1
Encoding settings : cabac=1 / ref=4 / deblock=1:-3:-3 / analyse=0x3:0x113 / me=umh / subme=10 / psy=1 / psy_rd=1.00:0.15 / mixed_ref=1 / me_range=32 / chroma_me=1 / trellis=2 / 8x8dct=1 / cqm=0 / deadzone=21,11 / fast_pskip=1 / chroma_qp_offset=-3 / threads=12 / lookahead_threads=2 / sliced_threads=0 / nr=0 / decimate=1 / interlaced=0 / bluray_compat=0 / constrained_intra=0 / bframes=9 / b_pyramid=2 / b_adapt=2 / b_bias=0 / direct=3 / weightb=1 / open_gop=0 / weightp=2 / keyint=250 / keyint_min=23 / scenecut=40 / intra_refresh=0 / rc_lookahead=60 / rc=crf / mbtree=1 / crf=17.5 / qcomp=0.70 / qpmin=0 / qpmax=69 / qpstep=4 / vbv_maxrate=40000 / vbv_bufsize=30000 / crf_max=0.0 / nal_hrd=none / frame-packing=4 / ip_ratio=1.40 / aq=1:0.70
Language : English
Default : Yes
Forced : No
Audio #1
ID : 2
Format : AC-3
Format/Info : Audio Coding 3
Mode extension : CM (complete main)
Format settings, Endianness : Big
Codec ID : A_AC3
Duration : 1h 51mn
Bit rate mode : Constant
Bit rate : 384 Kbps
Channel(s) : 6 channels
Channel positions : Front: L C R, Side: L R, LFE
Sampling rate : 48.0 KHz
Bit depth : 16 bits
Compression mode : Lossy
Stream size : 307 MiB (2%)
Title : Дубляж - iTunes
Language : Russian
Default : Yes
Forced : No
Audio #2
ID : 3
Format : AC-3
Format/Info : Audio Coding 3
Mode extension : CM (complete main)
Format settings, Endianness : Big
Codec ID : A_AC3
Duration : 1h 51mn
Bit rate mode : Constant
Bit rate : 640 Kbps
Channel(s) : 6 channels
Channel positions : Front: L C R, Side: L R, LFE
Sampling rate : 48.0 KHz
Bit depth : 16 bits
Compression mode : Lossy
Stream size : 512 MiB (4%)
Title : Original - BD 3D
Language : English
Default : No
Forced : No
Menu
00:00:00.000 : :1
00:05:40.338 : :2
00:12:05.932 : :3
00:22:48.616 : :4
00:28:10.896 : :5
00:35:50.731 : :6
00:40:40.855 : :7
00:51:09.023 : :8
00:57:54.846 : :9
01:03:10.244 : :10
01:07:06.230 : :11
01:14:24.042 : :12
01:26:01.738 : :13
01:29:24.108 : :14
01:36:00.337 : :15
01:45:41.917 : :16

Для оценки 3Д - Анимированные скрины




















[Профиль] [ЛС]
Показать сообщения:    

Текущее время: Сегодня 07:15

Часовой пояс: GMT



Вы не можете начинать темы
Вы не можете отвечать на сообщения
Вы не можете редактировать свои сообщения
Вы не можете удалять свои сообщения
Вы не можете голосовать в опросах
Вы не можете прикреплять файлы к сообщениям
Вы не можете скачивать файлы