Шхера-18 (Николай Дрейден) [2011, Россия, боевик, DVD5]

 
Автор Сообщение

TorrentFilm ®

Пол:

Стаж: 2 года

Сообщений: 7741



Награды: Нет

Торрент-статистика

Создавать темы 02-Янв-2016 00:01

[Цитировать]

Шхера-18
Страна: Россия
Студия: "Триикс Медиа", телеканал "НТВ"
Жанр: боевик
Год выпуска: 2011
Продолжительность: 01:28:07
Cубтитры: нет
Режиссер: Николай Дрейден
В ролях: Тимур Ефременков, Елена Николаева, Михаил Разумовский, Данила Козловский, Алексей Фокин, Владимир Шагин, Анна Астраханцева, Сергей Русскин, Александр Завьялов, Фёдор Лавров, Евгений Иванов, Вячеслав Гумеров, Александр Павельев, Карина Миронова
Описание: Ветеран отряда спецназа Евгений Сорматов едет на живописное озеро в Карелии. С собой он везет последнее письмо погибшего товарища, Андрея Егорова, и орден Героя России, которым того наградили посмертно. Там, в тихом уголке, на одной из шхер, в рыбачьем поселке живут отец и сестра Андрея. Сорматов находит обветшалую гостиницу, сторожем которой и оказывается отец Егорова. Евгений рассказывает родным товарища про героическую гибель Андрея, передает им письмо и орден, после чего собирается в обратную дорогу, но неожиданно начинается сильный шторм. Выбора нет: Евгений остаётся на шхере...
Доп. информация:
Сценарий: Антон Зинченко, Николай Дрейден
Оператор: Иван Багаев
Художник: Станислав Кублицкий
Композиторы: Виталий Муканяев, Максим Кошеваров
Ограничения на просмотр: зрителям, достигшим 14 лет

Бонусы: нет ("Смотрите на DVD")
Меню: есть, анимированное, озвученное
Тип релиза: DVD5
Контейнер: DVD-Video
Видео: PAL 4:3 (720x576), 1,83:1 Letterbox, 25 fps, VBR, 5894 Kbps
Аудио: Russian (Dolby AC3, 48 kHz, 2 ch, 160 kbps)

MediaInfo

Полное имя : \Shera-18\VIDEO_TS\VTS_01_1.VOB
Формат : MPEG-PS
Размер файла : 1024 Мбайт
Продолжительность : 23 м.
Режим общего битрейта : Переменный
Общий поток : 6177 Кбит/сек
Библиотека кодирования : encoded by TMPGEnc 4.0 XPress Version. 4.7.7.307
Видео
Идентификатор : 224 (0xE0)
Формат : MPEG Video
Версия формата : Version 2
Профиль формата : Main@Main
Параметр BVOP формата : Да
Параметр матрицы формата : Выборочная
Параметр GOP формата : M=3, N=13
Продолжительность : 23 м.
Вид битрейта : Переменный
Битрейт : 5894 Кбит/сек
Максимальный битрейт : 8000 Кбит/сек
Ширина : 720 пикселей
Высота : 576 пикселей
Соотношение сторон : 4:3
Частота кадров : 25,000 кадров/сек
Стандарт вещания : PAL
Цветовое пространство : YUV
Субдискретизация насыщенности : 4:2:0
Битовая глубина : 8 бит
Тип развёртки : Прогрессивная
Метод сжатия : С потерями
Бит/(Пиксели*Кадры) : 0.569
Размер потока : 977 Мбайт (95%)
Библиотека кодирования : TMPGEnc XPress / 4.7.7.307 4.7.7.307
Основные цвета : BT.470-2 System B, BT.470-2 System G
Характеристики трансфера : BT.470-2 System B, BT.470-2 System G
Коэффициенты матрицы : BT.470-2 System B, BT.470-2 System G
Аудио
Идентификатор : 189 (0xBD)-128 (0x80)
Формат : AC-3
Формат/Информация : Audio Coding 3
Расширение режима : CM (complete main)
Параметр Endianness формата : Big
Режим смешивания : DVD-Video
Продолжительность : 23 м.
Вид битрейта : Постоянный
Битрейт : 160 Кбит/сек
Каналы : 2 канала
Расположение каналов : Front: L R
Частота : 48,0 КГц
Битовая глубина : 16 бит
Метод сжатия : С потерями
Размер потока : 26,5 Мбайт (3%)

DVDInfo

Title:
Size: 4.33 Gb ( 4 541 332 KBytes ) - DVD-5
Enabled regions: 1, 2, 3, 4, 5, 6, 7, 8
VTS_01 :
Play Length: 01:28:07
Video: PAL 4:3 (720x576) VBR
Audio:
Russian (Dolby AC3, 2 ch)
VTS_02 :
Play Length: 00:00:14+00:00:09+00:01:59+00:01:54+00:02:11+00:01:48+00:00:12
Video: PAL 16:9 (720x576) VBR, Auto Pan&Scan, Auto Letterboxed
Audio:
Russian (Dolby AC3, 2 ch)
Menu Video:
PAL 4:3 (704x576) VBR
Menu Audio:
Not specified (Dolby AC3, 2 ch)
Menu Subtitles:
Not specified
Menu English Language Unit :
Root Menu

Скан обложки

Скриншоты меню

Скриншоты

[Профиль] [ЛС]
Кто просматривает тему:

Показать сообщения:    

Текущее время: Сегодня 12:15

Часовой пояс: GMT



Вы не можете начинать темы
Вы не можете отвечать на сообщения
Вы не можете редактировать свои сообщения
Вы не можете удалять свои сообщения
Вы не можете голосовать в опросах
Вы не можете прикреплять файлы к сообщениям
Вы не можете скачивать файлы