Шутки ангела (2013) HDTVRip от Шкипер

 
Автор Сообщение

Шкипер ®

Пол:

Стаж: 1 год 7 месяцев

Сообщений: 52



Награды: Нет

Торрент-статистика

Создавать темы 17-Май-2016 15:46

[Цитировать]

Информация о фильме
Название: Шутки ангела
Год выхода: 2013
Жанр: Комедия, фэнтези, боевик
Режиссер: Евгений Аксёнов
В ролях: Артур Ваха, Ростислав Бершауэр, Мария Бортник, Владимир Фоков, Алексей Федотов, Елена Купрашевич, Алена Силова, Геннадий Смирнов, Ольга Кирсанова-Миропольская, Алексей Васильев, Сергей Бызгу, Татьяна Иванова, Марина Ордина, Олег Петров, Данил Кокин, Владимир Маслаков, Александр Михалев, Дмитрий Петрушков, Александр Есаулов, Максим Крупский, Игорь Ключников, Юрий Яковлев, Екатерина Гудожник, Андрей Белоцерковский
О фильме:
Жил-был тиран и самодур бизнесмен Мухин. Так бы дальше и жил, мучая домочадцев и подчиненных, если бы… Если бы не началась за ним охота тайного убийцы, не было у него верного друга Пчелкина, надежного охранника Михалыча и маленькой дочки, которая подружилась с ангелом.
Страна: Россия
Студия: ТК "Домашний", ООО "Ланд Синема"
Продолжительность: 01:26:50
Перевод: Не требуется
Файл
Кодек: XviD
Качество: HDTVRip
Видео: 688x384 (16:9), 25 fps, XviD build 73 ~1061 kbps avg, 0.161 bit/pixel
Звук: 48 kHz, MPEG Layer 3, 2 ch, ~128.00 kbps avg
Субтитры: Отсутствуют
Семпл

MI

General
Complete name : D:Изготовление рипаShutki.angela.2013.HDTVRip.by shkiper.avi
Format : AVI
Format/Info : Audio Video Interleave
File size : 745 MiB
Duration : 1h 26mn
Overall bit rate : 1 200 Kbps
Writing application : VirtualDubMod 1.5.10.3 | www.virtualdub-fr.org || (build 2550/release)
Writing library : VirtualDubMod build 2550/release
Video
ID : 0
Format : MPEG-4 Visual
Format profile : Advanced Simple@L5
Format settings, BVOP : 1
Format settings, QPel : No
Format settings, GMC : No warppoints
Format settings, Matrix : Custom
Codec ID : XVID
Codec ID/Hint : XviD
Duration : 1h 26mn
Bit rate : 1 062 Kbps
Width : 688 pixels
Height : 384 pixels
Display aspect ratio : 16:9
Frame rate : 25.000 fps
Color space : YUV
Chroma subsampling : 4:2:0
Bit depth : 8 bits
Scan type : Progressive
Compression mode : Lossy
Bits/(Pixel*Frame) : 0.161
Stream size : 660 MiB (89%)
Writing library : XviD 73
Audio
ID : 1
Format : MPEG Audio
Format version : Version 1
Format profile : Layer 3
Codec ID : 55
Codec ID/Hint : MP3
Duration : 1h 26mn
Bit rate mode : Constant
Bit rate : 128 Kbps
Channel(s) : 2 channels
Sampling rate : 48.0 KHz
Compression mode : Lossy
Stream size : 79.5 MiB (11%)
Alignment : Aligned on interleaves
Interleave, duration : 40 ms (1.00 video frame)
Interleave, preload duratio : 504 ms
Writing library : LAME3.99r
Encoding settings : -m s -V 4 -q 2 -lowpass 17 -b 128

Скриншоты

Релиз от:
[Профиль] [ЛС]
Показать сообщения:    

Текущее время: Сегодня 14:42

Часовой пояс: GMT



Вы не можете начинать темы
Вы не можете отвечать на сообщения
Вы не можете редактировать свои сообщения
Вы не можете удалять свои сообщения
Вы не можете голосовать в опросах
Вы не можете прикреплять файлы к сообщениям
Вы не можете скачивать файлы