Шугарлендский экспресс / The Sugarland Express (Стивен Спилберг)[1974, Драма, комедия, криминал, BDRip]

 
Автор Сообщение

sergej644 ®

Пол:

Стаж: 4 года 11 месяцев

Сообщений: 6043

Откуда: Soviet Union



Награды: Нет

Торрент-статистика

Создавать темы 03-Июл-2015 17:34

[Цитировать]

-Шугарлендский экспресс / The Sugarland Express (1974) BDRip- Производство: США
Жанр: Драма, комедия, криминал, приключения
Режиссер: Стивен Спилберг
Актеры: Голди Хоун, Бен Джонсон, Майкл Сакс, Уильям Этертон, Грегори Уэлкотт, Стив Кэнэли, Луиз Лэтэм, Харрисон Занук, А.Л. Кэмп, Джесси Ли Фултон, Дин Смит, Тед Гроссман, Билл Турман, Кеннет Хаджинс, Бастер Дэниелс, Джеймс Н. Харрелл, Гуч Кук, Джин Рейдер, Руди Роббинс, Ричард Брайт
Описание:
Молодая супружеская пара с криминальным прошлым переживает более серьезную, чем тюремное заключение, трагедию: по приговору суда их маленький ребенок должен быть отдан в чужую семью. И тогда жена уговаривает на побег из тюрьмы мужа, затем они вдвоем угоняют полицейскую машину, взяв в заложники блюстителя закона, после чего отправляются в путь по дорогам Техаса, сопровождаемые караваном полицейских автомобилей. Они мчатся, не зная, что ждет их впереди...

Продолжительность: 01:49:52
Качество видео: BDRip
Перевод: Профессиональный многоголосый
Видео: XviD, 720x304, 2380 Кбит/с
Аудио:
1. AC3, 2 ch, 224 Кбит/с - русский
2. AC3, 2 ch, 224 Кбит/с - английский

MediaInfo:

Общее
Полное имя : C:\NNM\Шугарлендский экспресс\EXPRESS 1974 BDRip.avi
Формат : AVI
Формат/Информация : Audio Video Interleave
Профиль формата : OpenDML
Размер файла : 2,18 Гбайт
Продолжительность : 1 ч. 49 м.
Общий поток : 2846 Кбит/сек
Программа кодирования : VirtualDubMod 1.5.10.3
Библиотека кодирования : VirtualDubMod build 2550/release
Видео
Идентификатор : 0
Формат : MPEG-4 Visual
Профиль формата : Advanced Simple@L5
Параметр BVOP формата : 1
Параметр QPel формата : Нет
Параметр GMC формата : Без точки перехода
Параметр матрицы формата : Выборочная
Идентификатор кодека : XVID
Идентификатор кодека/Подсказка : XviD
Продолжительность : 1 ч. 49 м.
Битрейт : 2380 Кбит/сек
Ширина : 720 пикселей
Высота : 304 пикселя
Соотношение сторон : 2,35:1
Частота кадров : 23,976 кадра/сек
Цветовое пространство : YUV
Субдискретизация насыщенности : 4:2:0
Битовая глубина : 8 бит
Тип развёртки : Прогрессивная
Метод сжатия : С потерями
Бит/(Пиксели*Кадры) : 0.453
Размер потока : 1,83 Гбайт (84%)
Библиотека кодирования : XviD 65
Аудио #1
Идентификатор : 1
Формат : AC-3
Формат/Информация : Audio Coding 3
Расширение режима : CM (complete main)
Идентификатор кодека : 2000
Продолжительность : 1 ч. 49 м.
Вид битрейта : Постоянный
Битрейт : 224 Кбит/сек
Каналы : 2 канала
Расположение каналов : Front: L R
Частота : 48,0 КГц
Битовая глубина : 16 бит
Метод сжатия : С потерями
Размер потока : 176 Мбайт (8%)
Выравнивание : Соединение по промежуткам
Продолжительность промежутка : 42 мс. (1,00 видеокадр)
Время предзагрузки промежутка : 512 мс.
Аудио #2
Идентификатор : 2
Формат : AC-3
Формат/Информация : Audio Coding 3
Расширение режима : CM (complete main)
Идентификатор кодека : 2000
Продолжительность : 1 ч. 49 м.
Вид битрейта : Постоянный
Битрейт : 224 Кбит/сек
Каналы : 2 канала
Расположение каналов : Front: L R
Частота : 48,0 КГц
Битовая глубина : 16 бит
Метод сжатия : С потерями
Размер потока : 176 Мбайт (8%)
Выравнивание : Соединение по промежуткам
Продолжительность промежутка : 42 мс. (1,00 видеокадр)
Время предзагрузки промежутка : 512 мс.
Скриншоты:
[Профиль] [ЛС]

Создавать темы 06-Авг-2015 22:33 (спустя 1 месяц 3 дня)

Топик был перенесен из форума Фильмы до 2014 года в форум Классика зарубежного кино
sergej644
 
Показать сообщения:    

Текущее время: Сегодня 06:16

Часовой пояс: GMT



Вы не можете начинать темы
Вы не можете отвечать на сообщения
Вы не можете редактировать свои сообщения
Вы не можете удалять свои сообщения
Вы не можете голосовать в опросах
Вы не можете прикреплять файлы к сообщениям
Вы не можете скачивать файлы