Шубка для тучи (Мунавар Мансурходжаев) [1987, Рисованный мультфильм, VHSRip]

 
Автор Сообщение

TorrentFilm ®

Пол:

Стаж: 2 года

Сообщений: 7741



Награды: Нет

Торрент-статистика

Создавать темы 03-Янв-2016 00:05

[Цитировать]

Шубка для тучи
Страна: СССР
Жанр: Рисованный мультфильм
Продолжительность: 00:09:56
Год выпуска: 1987
Русские субтитры: нет
Режиссёр: Мунавар Мансурходжаев
Описание: Как волшебник-портной превратил невзрачный уголок в цветущую долину
Доп. информация: „Узбекфильм“
Оператор:А.Шабатаев
Художник:А.Адигамова
Композитор:Г.Александров
Текст песен:Н.Олев
Раздача группы:
Качество: VHSRip
Формат: AVI
Видео: 720x536 (1.34:1), 25 fps, XviD MPEG-4 ~2000 kbps avg, 0.21 bit/pixel
Аудио: 48 kHz, MPEG Layer 3, 1 ch, ~96.00 kbps avg
Субтитры: нет

Подробные технические данные

Format : AVIFormat/Info : Audio Video InterleaveFile size : 150 MiBDuration : 9mn 56sOverall bit rate : 2 106 KbpsWriting application : VirtualDubMod 1.5.10.3 | www.virtualdub-fr.org || (build 2550/release)Writing library : VirtualDubMod build 2550/release
VideoID : 0Format : MPEG-4 VisualFormat profile : Simple@L1Format settings, BVOP : NoFormat settings, QPel : NoFormat settings, GMC : No warppointsFormat settings, Matrix : Default (H.263)Codec ID : XVIDCodec ID/Hint : XviDDuration : 9mn 56sBit rate : 2 000 KbpsWidth : 720 pixelsHeight : 536 pixelsDisplay aspect ratio : 4:3Frame rate : 25.000 fpsColor space : YUVChroma subsampling : 4:2:0Bit depth : 8 bitsScan type : ProgressiveCompression mode : LossyBits/(Pixel*Frame) : 0.207Stream size : 142 MiB (95%)Writing library : Lavc53.33.0
AudioID : 1Format : MPEG AudioFormat version : Version 1Format profile : Layer 3Codec ID : 55Codec ID/Hint : MP3Duration : 9mn 56sBit rate mode : ConstantBit rate : 96.0 KbpsChannel(s) : 1 channelSampling rate : 48.0 KHzCompression mode : LossyStream size : 6.83 MiB (5%)Alignment : Aligned on interleavesInterleave, duration : 40 ms (1.00 video frame)Interleave, preload duration : 504 ms

Скриншоты

[Профиль] [ЛС]
Кто просматривает тему:

Показать сообщения:    

Текущее время: Сегодня 02:16

Часовой пояс: GMT



Вы не можете начинать темы
Вы не можете отвечать на сообщения
Вы не можете редактировать свои сообщения
Вы не можете удалять свои сообщения
Вы не можете голосовать в опросах
Вы не можете прикреплять файлы к сообщениям
Вы не можете скачивать файлы