Штурм Белого дома / White House Down (2013) BDRip 1080p

 
Автор Сообщение

BOSS ®

Пол:

Стаж: 2 года 1 месяц

Сообщений: 3746

Откуда: ODESSA



Награды: 20 (Подробнее)

Top Releaser 4 (Количество: 1) Mega Seeder 3 (Количество: 1) Top Seeder 3 (Количество: 1)
Торрент-статистика

Создавать темы 07-Фев-2016 18:03

[Цитировать]

Информация о фильме
Название: Штурм Белого дома
Оригинальное название: White House Down
Год выпуска: 2013
Жанр: боевик, триллер
Режиссер: Роланд Эммерих
В ролях: Ченнинг Татум, Джои Кинг, Джеймс Вудс, Джейсон Кларк, Джейми Фокс, Мэгги Джилленхол, Рашель Лефевр, Лэнс Реддик, Джимми Симпсон, Лэнс Реддик, Ричард Дженкинс
О фильме:
Cотрудник госбезопасности приходит вместе с дочерью в Белый дом на собеседование на должность в структуру охраны президента. И именно в этот день Белый дом атакуют некие неопознанные вооружённые силы. Офицер проявляет чудеса находчивости и отваги, пытаясь спасти жизнь своему ребёнку, себе и президенту США.

Выпущено: США
Продолжительность: 02:11:32
Перевод: Дублированный + Оригинал
Файл
Кодек: x264
Качество: BDRip 1080p
Видео: 1920x800, 7168 Kbps, 23.976 fps
Аудио #1: AC-3, 6 ch, 640 kbps (Rus)
Аудио #2: AC-3, 6 ch, 640 kbps (Eng)
Субтитры: русские, английские

Скриншоты

MI

Общее
Уникальный идентификатор : 211192031651648808648269256216069790069 (0x9EE21B143A19454394458BCFB687D975)
Полное имя : Штурм Белого дома.2013.BDRip.1080p.Rus.Eng.mkv
Формат : Matroska
Версия формата : Version 2
Размер файла : 7,76 Гбайт
Продолжительность : 2 ч. 11 м.
Общий поток : 8447 Кбит/сек
Название фильма : Штурм Белого дома.2013
Дата кодирования : UTC 2013-10-11 15:14:10
Программа кодирования : mkvmerge v5.8.0 ('No Sleep / Pillow') built on Sep 2 2012 15:37:04
Библиотека кодирования : libebml v1.2.3 + libmatroska v1.3.0
Видео
Идентификатор : 1
Формат : AVC
Формат/Информация : Advanced Video Codec
Профиль формата : High@L4.1
Параметр CABAC формата : Да
Параметр ReFrames формата : 5 кадров
Идентификатор кодека : V_MPEG4/ISO/AVC
Продолжительность : 2 ч. 11 м.
Битрейт : 7168 Кбит/сек
Ширина : 1920 пикселей
Высота : 800 пикселей
Соотношение сторон : 2,40:1
Режим частоты кадров : Постоянный
Частота кадров : 23,976 кадра/сек
Цветовое пространство : YUV
Субдискретизация насыщенности : 4:2:0
Битовая глубина : 8 бит
Тип развёртки : Прогрессивная
Бит/(Пиксели*Кадры) : 0.195
Размер потока : 6,43 Гбайт (83%)
Заголовок : Rip by Boriy
Библиотека кодирования : x264 core 138 r2358 9e941d1
Настройки программы : cabac=1 / ref=5 / deblock=1:-3:-3 / analyse=0x3:0x113 / me=umh / subme=11 / psy=1 / psy_rd=1.00:0.00 / mixed_ref=1 / me_range=32 / chroma_me=1 / trellis=2 / 8x8dct=1 / cqm=0 / deadzone=21,11 / fast_pskip=0 / chroma_qp_offset=-2 / threads=12 / lookahead_threads=1 / sliced_threads=0 / nr=0 / decimate=0 / interlaced=0 / bluray_compat=0 / constrained_intra=0 / bframes=6 / b_pyramid=2 / b_adapt=2 / b_bias=0 / direct=3 / weightb=1 / open_gop=0 / weightp=2 / keyint=240 / keyint_min=23 / scenecut=40 / intra_refresh=0 / rc=2pass / mbtree=0 / bitrate=7168 / ratetol=1.0 / qcomp=0.60 / qpmin=0 / qpmax=69 / qpstep=4 / cplxblur=20.0 / qblur=0.5 / ip_ratio=1.40 / pb_ratio=1.30 / aq=1:0.80
Язык : English
Default : Да
Forced : Нет
Аудио #1
Идентификатор : 2
Формат : AC-3
Формат/Информация : Audio Coding 3
Расширение режима : CM (complete main)
Параметр Endianness формата : Big
Идентификатор кодека : A_AC3
Продолжительность : 2 ч. 11 м.
Вид битрейта : Постоянный
Битрейт : 640 Кбит/сек
Каналы : 6 каналов
Расположение каналов : Front: L C R, Side: L R, LFE
Частота : 48,0 КГц
Битовая глубина : 16 бит
Метод сжатия : С потерями
Размер потока : 602 Мбайт (8%)
Заголовок : Дубляж
Язык : Russian
Default : Да
Forced : Нет
Аудио #2
Идентификатор : 3
Формат : AC-3
Формат/Информация : Audio Coding 3
Расширение режима : CM (complete main)
Параметр Endianness формата : Big
Идентификатор кодека : A_AC3
Продолжительность : 2 ч. 11 м.
Вид битрейта : Постоянный
Битрейт : 640 Кбит/сек
Каналы : 6 каналов
Расположение каналов : Front: L C R, Side: L R, LFE
Частота : 48,0 КГц
Битовая глубина : 16 бит
Метод сжатия : С потерями
Размер потока : 602 Мбайт (8%)
Заголовок : Оригинал
Язык : English
Default : Нет
Forced : Нет
Текст #1
Идентификатор : 4
Формат : UTF-8
Идентификатор кодека : S_TEXT/UTF8
Идентификатор кодека/Информация : UTF-8 Plain Text
Язык : Russian
Default : Нет
Forced : Нет
Текст #2
Идентификатор : 5
Формат : UTF-8
Идентификатор кодека : S_TEXT/UTF8
Идентификатор кодека/Информация : UTF-8 Plain Text
Язык : English
Default : Нет
Forced : Нет
Меню
00:00:00.000 : :Chapter 1
00:06:39.774 : :Chapter 2
00:15:18.834 : :Chapter 3
00:21:37.838 : :Chapter 4
00:30:10.809 : :Chapter 5
00:37:47.348 : :Chapter 6
00:45:51.206 : :Chapter 7
00:51:12.277 : :Chapter 8
00:59:55.133 : :Chapter 9
01:07:08.941 : :Chapter 10
01:14:42.853 : :Chapter 11
01:24:13.590 : :Chapter 12
01:29:53.805 : :Chapter 13
01:37:27.716 : :Chapter 14
01:44:36.561 : :Chapter 15
01:54:17.851 : :Chapter 16

x264

x264 [info]: frame I:2545 Avg QP:15.68 size:184280
x264 [info]: frame P:43785 Avg QP:18.51 size: 70172
x264 [info]: frame B:142910 Avg QP:20.83 size: 24679
[Профиль] [ЛС]
Кто просматривает тему:

Форум Тема Автор Размер
Фильмы 2015 года Бармен (Дина Штурманова) [2015, Комедия] WEB-DLRip | iTunes BOSS 1.37 GB
Фильмы (HD Rips | 720p, 1080p) Бармен (Дина Штурманова) [2015, Россия, комедия, фэнтези, HDTV 1080i] TorrentFilm 3.88 GB
R.G.TorrentFilm Video Бомбардировщики и штурмовики Второй мировой войны [серии 1-4 из 4] («ЗВЕЗДА») [2014 г., Документальный, авиация, война, история, IPTVRip] Один 777 1.4 GB
Action В тылу врага: Штурм 2 / Men of War: Assault Squad 2 [v 3.040.0] (2014) PC | RiP от R.G. Механики Белочка 1.4 GB
Стратегии В тылу врага: Штурм 2 / Men of War: Assault Squad 2 [v 3.201.1 + 3 DLC] (2014) (RUS) [RePack] by SeregA-Lus Russian Mafia 1.56 GB
Стратегии В тылу врага: Штурм 2 / Men of War: Assault Squad 2 [v 3.201.1 + 3 DLC] (2014) PC | Лицензия Russian Mafia 2.45 GB
Военное дело, авиация и вооружение Виктор Марковский, Игорь Приходченко - Су-25 «Грач». Все о грозном штурмовике (2016) PDF BOSS 57 MB
Авиасимуляторы Ил-2 Штурмовик. Забытые сражения / IL-2 Sturmovik. Forgotten Battles [v4.13.1m] (2016) PC | Repack Russian Mafia 4.28 GB
Показать сообщения:    

Текущее время: Сегодня 21:33

Часовой пояс: GMT



Вы не можете начинать темы
Вы не можете отвечать на сообщения
Вы не можете редактировать свои сообщения
Вы не можете удалять свои сообщения
Вы не можете голосовать в опросах
Вы не можете прикреплять файлы к сообщениям
Вы не можете скачивать файлы