Штурм Белого дома / White House Down (2013) BDRip 1080p

 
Автор Сообщение

sergej644 ®

Пол:

Стаж: 4 года 11 месяцев

Сообщений: 6040

Откуда: Soviet Union



Награды: Нет

Торрент-статистика

Создавать темы 21-Янв-2015 23:23

[Цитировать]

Информация о фильме
Название: Штурм Белого дома
Оригинальное название: White House Down
Год выхода: 2013
Жанр: боевик, триллер
Режиссер: Роланд Эммерих
В ролях: Ченнинг Татум, Джои Кинг, Джеймс Вудс, Джейсон Кларк, Джейми Фокс, Мэгги Джилленхол, Рашель Лефевр, Лэнс Реддик, Джимми Симпсон, Лэнс Реддик, Ричард Дженкинс
О фильме:
Cотрудник госбезопасности приходит вместе с дочерью в Белый дом на собеседование на должность в структуру охраны президента. И именно в этот день Белый дом атакуют некие неопознанные вооружённые силы. Офицер проявляет чудеса находчивости и отваги, пытаясь спасти жизнь своему ребёнку, себе и президенту США.

Выпущено: США
Студия: Columbia Pictures
Продолжительность: 02:11:32
Перевод: Дублированный (лицензия) + Украинский + Оригинал
Файл
Кодек: x264
Качество: BDRip (источник: Blu-ray Disc)
Видео: 1920x802 (2,40:1), 23.976 fps, 10,6 Mbps
Аудио #1: AC-3, 6 ch, 640 kbps (Rus)
Аудио #2: AC-3, 6 ch, 640 kbps (Ukr)
Аудио #3: AC-3, 6 ch, 640 kbps (Eng)
Субтитры: Русские, Английские

Скриншоты

MI

Общее
Уникальный идентификатор : 234692428541709615748114538580675652357 (0xB0901E1A0C0109199E5105A28DCFEB05)
Полное имя : F:РипыWhite.House.Down.2013.BDRip.1080p.Rus.Ukr.Eng.mkv
Формат : Matroska
Версия формата : Version 2
Размер файла : 11,5 Гбайт
Продолжительность : 2 ч. 11 м.
Общий поток : 12,6 Мбит/сек
Название фильма : Штурм Белого дома / White House Down (2013)
Дата кодирования : UTC 2013-10-12 10:13:28
Программа кодирования : mkvmerge v5.8.0 ('No Sleep / Pillow') built on Sep 2 2012 15:37:04
Библиотека кодирования : libebml v1.2.3 + libmatroska v1.3.0
Attachment : Yes
Видео
Идентификатор : 1
Формат : AVC
Формат/Информация : Advanced Video Codec
Профиль формата : High@L4.1
Параметр CABAC формата : Да
Параметр ReFrames формата : 5 кадров
Идентификатор кодека : V_MPEG4/ISO/AVC
Продолжительность : 2 ч. 11 м.
Битрейт : 10,6 Мбит/сек
Ширина : 1920 пикселей
Высота : 802 пикселя
Соотношение сторон : 2,40:1
Режим частоты кадров : Постоянный
Частота кадров : 23,976 кадра/сек
Цветовое пространство : YUV
Субдискретизация насыщенности : 4:2:0
Битовая глубина : 8 бит
Тип развёртки : Прогрессивная
Бит/(Пиксели*Кадры) : 0.288
Размер потока : 9,55 Гбайт (83%)
Заголовок : Release by N1NT3NDO
Библиотека кодирования : x264 core 138 r2358 9e941d1
Настройки программы : cabac=1 / ref=5 / deblock=1:-3:-3 / analyse=0x3:0x133 / me=umh / subme=11 / psy=1 / psy_rd=1.00:0.00 / mixed_ref=1 / me_range=32 / chroma_me=1 / trellis=2 / 8x8dct=1 / cqm=0 / deadzone=21,11 / fast_pskip=0 / chroma_qp_offset=-2 / threads=12 / lookahead_threads=1 / sliced_threads=0 / nr=0 / decimate=0 / interlaced=0 / bluray_compat=0 / constrained_intra=0 / bframes=6 / b_pyramid=2 / b_adapt=2 / b_bias=0 / direct=3 / weightb=1 / open_gop=0 / weightp=2 / keyint=240 / keyint_min=23 / scenecut=40 / intra_refresh=0 / rc_lookahead=80 / rc=2pass / mbtree=0 / bitrate=10644 / ratetol=1.0 / qcomp=0.60 / qpmin=0 / qpmax=69 / qpstep=4 / cplxblur=20.0 / qblur=0.5 / vbv_maxrate=50000 / vbv_bufsize=62500 / nal_hrd=none / ip_ratio=1.40 / pb_ratio=1.30 / aq=1:1.00
Язык : English
Default : Да
Forced : Нет
Аудио #1
Идентификатор : 2
Формат : AC-3
Формат/Информация : Audio Coding 3
Расширение режима : CM (complete main)
Параметр Endianness формата : Big
Идентификатор кодека : A_AC3
Продолжительность : 2 ч. 11 м.
Вид битрейта : Постоянный
Битрейт : 640 Кбит/сек
Каналы : 6 каналов
Расположение каналов : Front: L C R, Side: L R, LFE
Частота : 48,0 КГц
Битовая глубина : 16 бит
Метод сжатия : С потерями
Размер потока : 602 Мбайт (5%)
Заголовок : Rus
Язык : Russian
Default : Да
Forced : Нет
Аудио #2
Идентификатор : 3
Формат : AC-3
Формат/Информация : Audio Coding 3
Расширение режима : CM (complete main)
Параметр Endianness формата : Big
Идентификатор кодека : A_AC3
Продолжительность : 2 ч. 11 м.
Вид битрейта : Постоянный
Битрейт : 640 Кбит/сек
Каналы : 6 каналов
Расположение каналов : Front: L C R, Side: L R, LFE
Частота : 48,0 КГц
Битовая глубина : 16 бит
Метод сжатия : С потерями
Размер потока : 602 Мбайт (5%)
Заголовок : Ukr
Язык : Ukrainian
Default : Нет
Forced : Нет
Аудио #3
Идентификатор : 4
Формат : AC-3
Формат/Информация : Audio Coding 3
Расширение режима : CM (complete main)
Параметр Endianness формата : Big
Идентификатор кодека : A_AC3
Продолжительность : 2 ч. 11 м.
Вид битрейта : Постоянный
Битрейт : 640 Кбит/сек
Каналы : 6 каналов
Расположение каналов : Front: L C R, Side: L R, LFE
Частота : 48,0 КГц
Битовая глубина : 16 бит
Метод сжатия : С потерями
Размер потока : 602 Мбайт (5%)
Заголовок : Eng
Язык : English
Default : Нет
Forced : Нет
Текст #1
Идентификатор : 5
Формат : UTF-8
Идентификатор кодека : S_TEXT/UTF8
Идентификатор кодека/Информация : UTF-8 Plain Text
Заголовок : Rus
Язык : Russian
Default : Нет
Forced : Нет
Текст #2
Идентификатор : 6
Формат : UTF-8
Идентификатор кодека : S_TEXT/UTF8
Идентификатор кодека/Информация : UTF-8 Plain Text
Заголовок : Eng
Язык : English
Default : Нет
Forced : Нет
Меню
00:00:00.000 : en:00:00:00.000
00:06:39.774 : en:00:06:39.774
00:15:18.835 : en:00:15:18.835
00:21:37.838 : en:00:21:37.838
00:30:10.809 : en:00:30:10.809
00:37:47.348 : en:00:37:47.348
00:45:51.207 : en:00:45:51.207
00:51:12.278 : en:00:51:12.278
00:59:55.133 : en:00:59:55.133
01:07:08.942 : en:01:07:08.942
01:14:42.853 : en:01:14:42.853
01:24:13.590 : en:01:24:13.590
01:29:53.805 : en:01:29:53.805
01:37:27.717 : en:01:37:27.717
01:44:36.562 : en:01:44:36.562
01:54:17.851 : en:01:54:17.851

Дополнительная информация о релизе

Тот же фильм только в оптимальном качестве: Штурм Белого дома (7.76 GB) + Всем приятного просмотра :)
[Профиль] [ЛС]
Кто просматривает тему:

Форум Тема Автор Размер
Фильмы 2015 года Бармен (Дина Штурманова) [2015, Комедия] WEB-DLRip | iTunes BOSS 1.37 GB
Фильмы (HD Rips | 720p, 1080p) Бармен (Дина Штурманова) [2015, Россия, комедия, фэнтези, HDTV 1080i] TorrentFilm 3.88 GB
R.G.TorrentFilm Video Бомбардировщики и штурмовики Второй мировой войны [серии 1-4 из 4] («ЗВЕЗДА») [2014 г., Документальный, авиация, война, история, IPTVRip] Один 777 1.4 GB
Action В тылу врага: Штурм 2 / Men of War: Assault Squad 2 [v 3.040.0] (2014) PC | RiP от R.G. Механики Белочка 1.4 GB
Стратегии В тылу врага: Штурм 2 / Men of War: Assault Squad 2 [v 3.201.1 + 3 DLC] (2014) (RUS) [RePack] by SeregA-Lus Russian Mafia 1.56 GB
Стратегии В тылу врага: Штурм 2 / Men of War: Assault Squad 2 [v 3.201.1 + 3 DLC] (2014) PC | Лицензия Russian Mafia 2.45 GB
Военное дело, авиация и вооружение Виктор Марковский, Игорь Приходченко - Су-25 «Грач». Все о грозном штурмовике (2016) PDF BOSS 57 MB
Авиасимуляторы Ил-2 Штурмовик. Забытые сражения / IL-2 Sturmovik. Forgotten Battles [v4.13.1m] (2016) PC | Repack Russian Mafia 4.28 GB
Показать сообщения:    

Текущее время: Сегодня 00:50

Часовой пояс: GMT



Вы не можете начинать темы
Вы не можете отвечать на сообщения
Вы не можете редактировать свои сообщения
Вы не можете удалять свои сообщения
Вы не можете голосовать в опросах
Вы не можете прикреплять файлы к сообщениям
Вы не можете скачивать файлы