Штука / Большой турнир / The Grand (Зак Пенн / Zak Penn) [2007, США, комедия, HDRip] DVO (НТВ+) + DVO + Original Eng

 
Автор Сообщение

painkiller ®

Стаж: 2 года 3 месяца

Сообщений: 582



Награды: Нет

Торрент-статистика

Создавать темы 14-Авг-2014 09:11

[Цитировать]

Штука / Большой турнир / The Grand
Страна: США
Студия: Insomnia Media Group, Eleven Eleven Films, IMG Film 7
Жанр: комедия
Год выпуска: 2007
Продолжительность: 01:44:20
Перевод 1: Профессиональный (двухголосый закадровый) НТВ+
Перевод 2: Любительский (двухголосый закадровый)
Cубтитры: нет
Оригинальная аудиодорожка: английский
Режиссер: Зак Пенн / Zak Penn
В ролях: Вуди Харрельсон, Дэвид Кросс, Деннис Фарина, Шерил Хайнс, Ричард Кайнд, Крис Парнелл, Вернер Херцог, Джейсон Александр, Рэй Романо, Майк Еппс, Джуди Грир, Гейб Каплан, Michael Karnow, Майкл МакКин, Джули Клер, Бэрри Корбин, Шеннон Элизабет, Эстелль Харрис, Эндрю Хилл Ньюман, Андреа Сэвадж, Фил Гордон, Роберт Томпсон, Doyle Brunson, Antonio Esfandiari, Фил Хелльмут мл., Phil Laak, Даниэль Негреану и др.
Описание: Псевдо документальная комедия о покерном турнире, где все участвующие актеры могли свободно импровизировать за игровым столом. Шесть игроков, шесть разных судеб, госпожа Удача и стол, покрытый зеленым сукном. Леди и джентльмены, ставки сделаны!
II Сэмпл II IMDB II
Доп. информация:
Звук записан с т/к Кино Плюс
Качество видео: HDRip
Формат видео: AVI
Видео: Xvid 720x400 (16:9) 23.976fps Bit rate 1897Kbps b/p 0.275
Аудио 1: AC3 48.0 KHz 2ch. 192kbps rus dvo
Аудио 2: AC3 48.0 KHz 6ch. 448kbps rus dvo
Аудио 3: AC3 48.0 KHz 6ch. 448kbps eng

MediaInfo

Общее
Полное имя : E:\torrent\The.Grand.2007.HDDRip.avi
Формат : AVI
Формат/Информация : Audio Video Interleave
Профиль формата : OpenDML
Размер файла : 2,19 Гбайт
Продолжительность : 1 ч. 44 м.
Общий поток : 3008 Кбит/сек
Программа кодирования : VirtualDubMod 1.5.10.2 (build 2542/release)
Библиотека кодирования : VirtualDubMod build 2542/release
Видео
Идентификатор : 0
Формат : MPEG-4 Visual
Профиль формата : Advanced Simple@L5
Параметр BVOP формата : 2
Параметр QPel формата : Нет
Параметр GMC формата : Без точки перехода
Параметр матрицы формата : Default (H.263)
Идентификатор кодека : XVID
Идентификатор кодека/Подсказка : XviD
Продолжительность : 1 ч. 44 м.
Битрейт : 1897 Кбит/сек
Ширина : 720 пикселей
Высота : 400 пикселей
Соотношение сторон : 16:9
Частота кадров : 23,976 кадра/сек
Цветовое пространство : YUV
Субдискретизация насыщенности : 4:2:0
Битовая глубина : 8 бит
Тип развёртки : Прогрессивная
Метод сжатия : С потерями
Бит/(Пиксели*Кадры) : 0.275
Размер потока : 1,38 Гбайт (63%)
Библиотека кодирования : XviD 65
Аудио #1
Идентификатор : 1
Формат : AC-3
Формат/Информация : Audio Coding 3
Расширение режима : CM (complete main)
Параметр Endianness формата : Big
Идентификатор кодека : 2000
Продолжительность : 1 ч. 44 м.
Вид битрейта : Постоянный
Битрейт : 192 Кбит/сек
Каналы : 2 канала
Расположение каналов : Front: L R
Частота : 48,0 КГц
Битовая глубина : 16 бит
Метод сжатия : С потерями
Размер потока : 143 Мбайт (6%)
Выравнивание : Разделение по промежуткам
Продолжительность промежутка : 42 мс. (1,00 видеокадр)
Время предзагрузки промежутка : 500 мс.
Аудио #2
Идентификатор : 2
Формат : AC-3
Формат/Информация : Audio Coding 3
Расширение режима : CM (complete main)
Параметр Endianness формата : Big
Идентификатор кодека : 2000
Продолжительность : 1 ч. 44 м.
Вид битрейта : Постоянный
Битрейт : 448 Кбит/сек
Каналы : 6 каналов
Расположение каналов : Front: L C R, Side: L R, LFE
Частота : 48,0 КГц
Битовая глубина : 16 бит
Метод сжатия : С потерями
Размер потока : 334 Мбайт (15%)
Выравнивание : Разделение по промежуткам
Продолжительность промежутка : 42 мс. (1,00 видеокадр)
Время предзагрузки промежутка : 500 мс.
Аудио #3
Идентификатор : 3
Формат : AC-3
Формат/Информация : Audio Coding 3
Расширение режима : CM (complete main)
Параметр Endianness формата : Big
Идентификатор кодека : 2000
Продолжительность : 1 ч. 44 м.
Вид битрейта : Постоянный
Битрейт : 448 Кбит/сек
Каналы : 6 каналов
Расположение каналов : Front: L C R, Side: L R, LFE
Частота : 48,0 КГц
Битовая глубина : 16 бит
Метод сжатия : С потерями
Размер потока : 334 Мбайт (15%)
Выравнивание : Разделение по промежуткам
Продолжительность промежутка : 42 мс. (1,00 видеокадр)
Время предзагрузки промежутка : 500 мс.

Скриншот c названием фильма

Скриншоты

[Профиль] [ЛС]

Создавать темы 06-Авг-2015 23:17 (спустя 11 месяцев 23 дня)

Топик был перенесен из форума Фильмы до 2014 года в форум Фильмы до 2012 года
sergej644
 
Кто просматривает тему:

Показать сообщения:    

Текущее время: Сегодня 19:36

Часовой пояс: GMT



Вы не можете начинать темы
Вы не можете отвечать на сообщения
Вы не можете редактировать свои сообщения
Вы не можете удалять свои сообщения
Вы не можете голосовать в опросах
Вы не можете прикреплять файлы к сообщениям
Вы не можете скачивать файлы