Шторм / De storm (Бен Сомбогаарт / Ben Sombogaart) [2009, Нидерланды, Бельгия, драма, BDRip] MVO(R5)+Original(Dut)+Sub(Eng)

 
Автор Сообщение

painkiller ®

Стаж: 2 года 3 месяца

Сообщений: 582



Награды: Нет

Торрент-статистика

Создавать темы 15-Авг-2014 01:09

[Цитировать]

Шторм
De storm
--Страна: Нидерланды, Бельгия
Жанр: драма
Год выпуска: 2009
Продолжительность: 01:36:36--Перевод: Профессиональный (многоголосый, закадровый)
Cубтитры: английские
Оригинальная аудиодорожка: нидерландский--Режиссер:
Бен Сомбогаарт / Ben Sombogaart
В ролях:
Сильвия Хукс (Julia), Барри Атсма (Aldo), Дирк Руфтхуфт (Vader Julia), Моник Хендрикс (Moeder Julia), Элса Май Аврилл (Emma), Катя Херберс (Krina), Лотти Хеллингман (Stientje), Бас Кейзер (Guus), Санне ден (Koos), Эверт Де Ягер (Burgemeester Haverkamp), Бетти Шюрман (Mevrouw Haverkamp), Серж Прайс (Felix)--Описание:В последний день января 1953 года прорыв сразу нескольких дамб и сильный шторм на море вызывают колоссальное наводнение в Голландии. Хлынувшее море затопляет сотни километров земли, разрушая фермерский дом молодой матери-одиночки Юлии, которая оказывается разлучённой со своим маленьким ребёнком. Саму её от гибели чудом спасает молодой лейтенант военно-воздушных сил, который соглашается помочь ей в безнадёжной попытке найти потерянного малыша посреди обрушившегося на страну хаоса и разрухи.--Качество видео:BDRip
Формат видео: AVI
Видео: 720x304 (2.37:1), 24 fps, XviD MPEG-4 ~2334 kbps avg, 0.44 bit/pixel
Аудио 1: 48 kHz, AC3 Dolby Digital, 3/2 (L,C,R,l,r) + LFE ch, ~448 kbps Russian
Аудио 2: 48 kHz, AC3 Dolby Digital, 3/2 (L,C,R,l,r) + LFE ch, ~448 kbps Netherlands

Скриншоты

Media Info

General
Complete name : F:\Рипы\Storm.2009.BDRip\Storm.2009.BDRip.avi
Format : AVI
Format/Info : Audio Video Interleave
Format profile : OpenDML
File size : 2.18 GiB
Duration : 1h 36mn
Overall bit rate : 3 237 Kbps
Writing application : VirtualDubModRus 1.5.10.2 (build 2542/release)
Writing library : VirtualDubMod build 2542/release
Video
ID : 0
Format : MPEG-4 Visual
Format profile : Advanced Simple@L5
Format settings, BVOP : 1
Format settings, QPel : No
Format settings, GMC : No warppoints
Format settings, Matrix : Custom
Codec ID : XVID
Codec ID/Hint : XviD
Duration : 1h 36mn
Bit rate : 2 323 Kbps
Width : 720 pixels
Height : 304 pixels
Display aspect ratio : 2.35:1
Frame rate : 24.000 fps
Color space : YUV
Chroma subsampling : 4:2:0
Bit depth : 8 bits
Scan type : Progressive
Compression mode : Lossy
Bits/(Pixel*Frame) : 0.442
Stream size : 1.57 GiB (72%)
Writing library : XviD 73
Audio #1
ID : 1
Format : AC-3
Format/Info : Audio Coding 3
Mode extension : CM (complete main)
Codec ID : 2000
Duration : 1h 36mn
Bit rate mode : Constant
Bit rate : 448 Kbps
Channel(s) : 6 channels
Channel positions : Front: L C R, Side: L R, LFE
Sampling rate : 48.0 KHz
Bit depth : 16 bits
Compression mode : Lossy
Stream size : 309 MiB (14%)
Alignment : Split accross interleaves
Interleave, duration : 42 ms (1.00 video frame)
Interleave, preload duration : 500 ms
Audio #2
ID : 2
Format : AC-3
Format/Info : Audio Coding 3
Mode extension : CM (complete main)
Codec ID : 2000
Duration : 1h 36mn
Bit rate mode : Constant
Bit rate : 448 Kbps
Channel(s) : 6 channels
Channel positions : Front: L C R, Side: L R, LFE
Sampling rate : 48.0 KHz
Bit depth : 16 bits
Compression mode : Lossy
Stream size : 310 MiB (14%)
Alignment : Split accross interleaves
Interleave, duration : 42 ms (1.00 video frame)
Interleave, preload duration : 500 ms
[Профиль] [ЛС]

Создавать темы 06-Авг-2015 23:11 (спустя 11 месяцев 22 дня)

Топик был перенесен из форума Фильмы до 2014 года в форум Фильмы до 2012 года
sergej644
 

Создавать темы 12-Июн-2016 08:48 (спустя 1 год 9 месяцев)

Топик был перенесен из форума Фильмы 2011 года в форум Фильмы 2009 года
Russian Mafia
 
Показать сообщения:    

Текущее время: Сегодня 09:12

Часовой пояс: GMT



Вы не можете начинать темы
Вы не можете отвечать на сообщения
Вы не можете редактировать свои сообщения
Вы не можете удалять свои сообщения
Вы не можете голосовать в опросах
Вы не можете прикреплять файлы к сообщениям
Вы не можете скачивать файлы