Шторм / Windkracht 10: Koksijde Rescue (Ганс Херботс / Hans Herbots) [2006 г., боевик, драма, приключения, DVDRip] MVO + Original + Sub (Rus,eng)

 
Автор Сообщение

painkiller ®

Стаж: 2 года 3 месяца

Сообщений: 582



Награды: Нет

Торрент-статистика

Создавать темы 15-Авг-2014 01:07

[Цитировать]

Шторм
Windkracht 10: Koksijde Rescue
--Страна: Бельгия
Жанр: боевик, драма, приключения
Год выпуска: 2006
Продолжительность: 01:56:29--Перевод: Профессиональный (многоголосый, закадровый)
Cубтитры: Русские, английские
Оригинальная аудиодорожка: английский--Режиссер:
Ханс Херботс / Hans Herbots
В ролях:
Кевин Дженссенс (Rick Symons), Аксел Дазелейре (Koen),Коэн Де Боу (Mark Van Houte), Stan Van Samang (Serge Helsen), Ludo Busschots (Patrick Adams), Йелле Клейманс (Bert Gorissen), Варре Боргманс (Jean Louis Hubert De Jonghe), Вик Де Уоктер (Bob Govaerts), Франсуа Букелаэрс (Generaal Cassiman), Марк ван ден Бос (Generaal Landmacht), Жан-Мишель Флаготье (Admiraal), Эрик Годон (Defence minister)--Описание:После «стычки» с высшим армейским командованием боевого пловца элитного диверсионного отряда, сержанта Рика, переводят в подразделение морских спасателей. Служба здесь менее почетна, но полна риска. Они - последняя надежда для тех, кто в беде!--Качество видео: DVDRip
Формат видео: AVI
Видео: 704x304 (2.32:1), 25 fps, XviD MPEG-4 ~1803 kbps avg, 0.34 bit/pixel
Аудио 1: 48 kHz, AC3 Dolby Digital, 3/2 (L,C,R,l,r) + LFE ch, ~448 kbps Russian
Аудио 2: 48 kHz, AC3 Dolby Digital, 3/2 (L,C,R,l,r) + LFE ch, ~448 kbps English
Media Info">

Скриншоты Media Info


General
Complete name : F:\Рипы\Shtorm.2006.DVDRip\Shtorm.2006.DVDRip.avi
Format : AVI
Format/Info : Audio Video Interleave
Format profile : OpenDML
File size : 2.20 GiB
Duration : 1h 56mn
Overall bit rate : 2 706 Kbps
Writing application : VirtualDubModRus 1.5.10.2 (build 2542/release)
Writing library : VirtualDubMod build 2542/release
Video
ID : 0
Format : MPEG-4 Visual
Format profile : Advanced Simple@L5
Format settings, BVOP : 1
Format settings, QPel : No
Format settings, GMC : No warppoints
Format settings, Matrix : Custom
Codec ID : XVID
Codec ID/Hint : XviD
Duration : 1h 56mn
Bit rate : 1 792 Kbps
Width : 704 pixels
Height : 304 pixels
Display aspect ratio : 2.35:1
Frame rate : 25.000 fps
Color space : YUV
Chroma subsampling : 4:2:0
Bit depth : 8 bits
Scan type : Progressive
Compression mode : Lossy
Bits/(Pixel*Frame) : 0.335
Stream size : 1.46 GiB (66%)
Writing library : XviD 73
Audio #1
ID : 1
Format : AC-3
Format/Info : Audio Coding 3
Mode extension : CM (complete main)
Codec ID : 2000
Duration : 1h 56mn
Bit rate mode : Constant
Bit rate : 448 Kbps
Channel(s) : 6 channels
Channel positions : Front: L C R, Side: L R, LFE
Sampling rate : 48.0 KHz
Bit depth : 16 bits
Compression mode : Lossy
Stream size : 373 MiB (17%)
Alignment : Split accross interleaves
Interleave, duration : 40 ms (1.00 video frame)
Interleave, preload duration : 500 ms
Audio #2
ID : 2
Format : AC-3
Format/Info : Audio Coding 3
Mode extension : CM (complete main)
Codec ID : 2000
Duration : 1h 56mn
Bit rate mode : Constant
Bit rate : 448 Kbps
Channel(s) : 6 channels
Channel positions : Front: L C R, Side: L R, LFE
Sampling rate : 48.0 KHz
Bit depth : 16 bits
Compression mode : Lossy
Stream size : 373 MiB (17%)
Alignment : Split accross interleaves
Interleave, duration : 40 ms (1.00 video frame)
Interleave, preload duration : 500 ms
[Профиль] [ЛС]

Создавать темы 06-Авг-2015 23:13 (спустя 11 месяцев 22 дня)

Топик был перенесен из форума Фильмы до 2014 года в форум Фильмы до 2012 года
sergej644
 
Показать сообщения:    

Текущее время: Сегодня 11:56

Часовой пояс: GMT



Вы не можете начинать темы
Вы не можете отвечать на сообщения
Вы не можете редактировать свои сообщения
Вы не можете удалять свои сообщения
Вы не можете голосовать в опросах
Вы не можете прикреплять файлы к сообщениям
Вы не можете скачивать файлы