Штормовое предупреждение / Storm Warning (Джэми Блэнкс / Jamie Blanks) [2007, Австралия, ужасы, триллер, BDRip] [Unrated] Dub (R5) + sub (forced)

 
Автор Сообщение

painkiller ®

Стаж: 2 года 3 месяца

Сообщений: 582



Награды: Нет

Торрент-статистика

Создавать темы 14-Авг-2014 13:03

[Цитировать]

Штормовое предупреждение / Storm Warning [Unrated]- Год выпуска: 2007
Выпущено: Австралия
Жанр: ужасы, триллер
Продолжительность: 01:26:13
Перевод: Профессиональный (полное дублирование) R5
Субтитры: Русские (форсированные) внешние (*srt)-Режиссер: Джэми Блэнкс / Jamie Blanks
В ролях: Надя Фарес, Роберт Тейлор, Дэвид Лайонс, Мэттью Уилкинсон, Джон Брамптон, Джонатан Олдхэм, Пюсс
О фильме: Роб и Пиа, семейная пара, отправляются на лодочную прогулку и попадают в страшную бурю. Их лодка разбита, они выброшены в совершенно безлюдном и жутком месте, окруженном непроходимым лесом… В попытке спрятаться от бушующего дождя и ветра молодые люди находят, как им кажется, заброшенную ферму, в которой обнаруживают большое количество марихуаны. Теперь они понимают, что если вдруг объявится хозяин, им ничего хорошего не светит, но они и не предполагали, что за ужас их ждет.
Релиз:
Автор: sociolog_melvas
Качество: BDRip (источник: Arifis / BDRemux / 1080p)
Формат: AVI
Видео: 704x400 (1.76:1), 23,976 fps, XviD build 65 ~1953 kbps avg, 0.29 bit/pixel
Аудио: 48 kHz, AC3 Dolby Digital, 3/2 (L,C,R,l,r) + LFE ch, ~448.00 kbps avg
Размер: 1486.97 Mb (1/3 DVD-R)-

Кадры из фильма


-

Mi


Формат : AVI
Формат/Информация : Audio Video Interleave
Размер файла : 1,45 Гбайт
Продолжительность : 1 ч. 26 м.
Общий поток : 2411 Кбит/сек
Название фильма : Штормовое предупреждение / Storm Warning [Unrated] (2007) BDRip
Режиссёр : sociolog_melvas
Жанр : ужасы, триллер
Программа кодирования : VirtualDubMod 1.5.10.2 (build 2540/release)
Примечание : 21.02.2014
Видео
Идентификатор : 0
Формат : MPEG-4 Visual
Профиль формата : Advanced Simple@L5
Параметр BVOP формата : 1
Параметр QPel формата : Нет
Параметр GMC формата : Без точки перехода
Параметр матрицы формата : Выборочная
Идентификатор кодека : XVID
Идентификатор кодека/Подсказка : XviD
Продолжительность : 1 ч. 26 м.
Битрейт : 1954 Кбит/сек
Ширина : 704 пикселя
Высота : 400 пикселей
Соотношение сторон : 16:9
Частота кадров : 23,976 кадра/сек
Цветовое пространство : YUV
Субдискретизация насыщенности : 4:2:0
Битовая глубина : 8 бит
Тип развёртки : Прогрессивная
Метод сжатия : С потерями
Бит/(Пиксели*Кадры) : 0.289
Размер потока : 1,18 Гбайт (81%)
Библиотека кодирования : XviD 65
Аудио
Идентификатор : 1
Формат : AC-3
Формат/Информация : Audio Coding 3
Расширение режима : CM (complete main)
Параметр Endianness формата : Big
Идентификатор кодека : 2000
Продолжительность : 1 ч. 26 м.
Вид битрейта : Постоянный
Битрейт : 448 Кбит/сек
Каналы : 6 каналов
Расположение каналов : Front: L C R, Side: L R, LFE
Частота : 48,0 КГц
Битовая глубина : 16 бит
Метод сжатия : С потерями
Размер потока : 276 Мбайт (19%)
Выравнивание : Разделение по промежуткам
Продолжительность промежутка : 42 мс. (1,00 видеокадр)
Время предзагрузки промежутка : 500 мс.

-
• Версия с ДВД имеет R-Rated версию, на Blu-Ray'е - Unrated. Для синхронизации использовались вставки из оригинала.
• Разница тут - http://www.movie-censorship.com/report.php?ID=4616451
• На места без перевода были созданы форсированные сабы, по переводу Хихидока.
[Профиль] [ЛС]

Создавать темы 06-Авг-2015 23:13 (спустя 11 месяцев 23 дня)

Топик был перенесен из форума Фильмы до 2014 года в форум Фильмы до 2012 года
sergej644
 
Показать сообщения:    

Текущее время: Сегодня 23:29

Часовой пояс: GMT



Вы не можете начинать темы
Вы не можете отвечать на сообщения
Вы не можете редактировать свои сообщения
Вы не можете удалять свои сообщения
Вы не можете голосовать в опросах
Вы не можете прикреплять файлы к сообщениям
Вы не можете скачивать файлы