Штат Блу Маунтин: Восстание Тадлэнда / Blue Mountain State: The Rise of Thadland (Лев Л. Спиро / Lev L. Spiro) [2016, США, Комедия, Спорт, WEB-DLRip] DVO (Parovoz Production) + Original Eng

 
Автор Сообщение

TorrentFilm ®

Пол:

Стаж: 2 года

Сообщений: 7741



Награды: Нет

Торрент-статистика

Создавать темы 08-Фев-2016 00:08

[Цитировать]

-Штат Блу Маунтин: Восстание Тадлэнда / Blue Mountain State: The Rise of Thadland- -Страна: США
Жанр: Комедия, Спорт
Год выпуска: 2016
Продолжительность: 01:30:10-Перевод: Любительский (двухголосый закадровый) Parovoz Production-Cубтитры: нет
Оригинальная аудиодорожка: Английская-Режиссер: Лев Л. Спиро / Lev L. Spiro-В ролях: Алан Ричсон, Дэрин Брукс, Джеймс Кейд, Роб Рамсей, Крис Романо, Фрэнки Шоу, Омари Ньютон, Эд Маринаро, Дани Джонс, Эд Аматрудо-Описание: Когда декан университета Блю Маунтин грозится продать дом университетской команды "Козлы", Алекс устраивает Таду вечеринку его мечты с целью убедить последнего выкупить этот дом.- -Качество видео: WEB-DLRip
Формат видео: AVI-Видео: XviD, 720x304 (2.35:1), 23.976 fps, ~1900 kbps avg, 0.36 bit/pixel
Аудио 1: 48 kHz, AC3 Dolby Digital, 2/0 (L,R) ch, ~192 kbps
Аудио 2: 48 kHz, AC3 Dolby Digital, 2/0 (L,R) ch, ~192 kbps-

MediaInfo

Complete name : C:\Users\1\Desktop\РАЗДАЧИ\Blue Mountain State The Rise of Thadland (2016) WEB-DLRip.avi
Format : AVI
Format/Info : Audio Video Interleave
File size : 1.45 GiB
Duration : 1h 30mn
Overall bit rate : 2 309 Kbps
Writing application : VirtualDubMod 1.5.10.3 | www.virtualdub-fr.org || (build 2550/release)
Writing library : VirtualDubMod build 2550/release
Video
ID : 0
Format : MPEG-4 Visual
Format profile : Advanced Simple@L5
Format settings, BVOP : 1
Format settings, QPel : No
Format settings, GMC : No warppoints
Format settings, Matrix : Custom
Codec ID : XVID
Codec ID/Hint : XviD
Duration : 1h 30mn
Bit rate : 1 910 Kbps
Width : 720 pixels
Height : 304 pixels
Display aspect ratio : 2.35:1
Frame rate : 23.976 (23976/1000) fps
Color space : YUV
Chroma subsampling : 4:2:0
Bit depth : 8 bits
Scan type : Progressive
Compression mode : Lossy
Bits/(Pixel*Frame) : 0.364
Stream size : 1.20 GiB (83%)
Writing library : XviD 73
Audio #1
ID : 1
Format : AC-3
Format/Info : Audio Coding 3
Mode extension : CM (complete main)
Format settings, Endianness : Big
Codec ID : 2000
Duration : 1h 30mn
Bit rate mode : Constant
Bit rate : 192 Kbps
Channel(s) : 2 channels
Channel positions : Front: L R
Sampling rate : 48.0 KHz
Frame rate : 31.250 fps (1536 spf)
Compression mode : Lossy
Stream size : 124 MiB (8%)
Alignment : Split accross interleaves
Interleave, duration : 42 ms (1.00 video frame)
Interleave, preload duratio : 500 ms
Audio #2
ID : 2
Format : AC-3
Format/Info : Audio Coding 3
Mode extension : CM (complete main)
Format settings, Endianness : Big
Codec ID : 2000
Duration : 1h 30mn
Bit rate mode : Constant
Bit rate : 192 Kbps
Channel(s) : 2 channels
Channel positions : Front: L R
Sampling rate : 48.0 KHz
Frame rate : 31.250 fps (1536 spf)
Compression mode : Lossy
Stream size : 124 MiB (8%)
Alignment : Split accross interleaves
Interleave, duration : 42 ms (1.00 video frame)
Interleave, preload duratio : 500 ms

Скриншот c названием фильма

Скриншоты

[Профиль] [ЛС]
Кто просматривает тему:

Показать сообщения:    

Текущее время: Сегодня 06:15

Часовой пояс: GMT



Вы не можете начинать темы
Вы не можете отвечать на сообщения
Вы не можете редактировать свои сообщения
Вы не можете удалять свои сообщения
Вы не можете голосовать в опросах
Вы не можете прикреплять файлы к сообщениям
Вы не можете скачивать файлы