Штамм / The Strain / Сезон 3 / Серии 1 из 10 (Дж. Майлз Дэйл / J. Miles Dale, Фил Абрахам / Phil Abraham, Питер Уэллер / Peter Weller) [2016, США, ужасы, триллер, драма, HDTVRip-AVC] MVO [FocusStudio]

 
Автор Сообщение

MeMoRiSe ®

Пол:

Стаж: 3 месяца 10 дней

Сообщений: 3



Награды: Нет

Торрент-статистика

Создавать темы 28-Авг-2016 06:19

[Цитировать]

Штамм Сезон 3. Серии 1 из 10 / The Strain
Год выпуска: 2016
Страна: США
Жанр: ужасы, триллер, драма
Продолжительность: 00:42:02 (Серия)
Перевод: Профессиональный (многоголосый, закадровый)
Режиссер: Дж. Майлз Дэйл / J. Miles Dale, Фил Абрахам / Phil Abraham, Питер Уэллер / Peter Weller
В ролях: Кори Столл (Ephraim Goodweather), Миа Маэстро (Nora Martinez), Дэвид Брэдли (Abraham Setrakian), Рихард Заммель (Thomas Eichorst), Шон Эстин (Jim Kent), Джонатан Хайд (Eldritch Palmer), Кевин Дюран (Vasiliy Fet), Джек Кеси (Gabriel Bolivar), Натали Браун (Kelly Goodweather), Бен Хайленд (Zach Goodweather), Роджер Р. Кросс (Reggie Fitzwilliam), Мигель Гомес (Augustin «Gus» Elizalde)
Описание: В аэропорту Нью-Йорка экстренно приземляется самолет, полный мертвецов. Для выяснения обстоятельств их смерти на борт направляются ученые, возглавляемые лучшим городским эпидемиологом Эфраимом Гудвезером. В ходе исследований становится ясно, что пассажиры заражены вирусом вампиризма, который грозит перерасти в масштабную эпидемию, способную погубить все человечество.- -Качество: HDTVRip-AVC
Формат: MPEG-4
Видео кодек: AVC
Аудио кодек: AC3
Видео: 1024x576 (16:9), 2000 kbps, 23,976 fps, 0,141 bpp
Аудио: русский / 2.0 / 48 kHz / 384 kbps / 16 bit |[FocusStudio}

MI

General
Название : H:\Штамм (Сезон 3)\hе.Strаin.S03E01.HDTVRip-AVC.FocusStudio.mp4
Формат : MPEG-4
Формат profile : Base Media
Кодек ID : isom (isom/iso2/avc1/mp41)
Размер файла : 717 MiB
Длительность : 42 min
Общий Битрейт : 2 385 kb/s
Создано приложением : XviD4PSP 7.0.285 DAILY
HDVideo : Yes
encoding_info : MATROSKA / WEBM > MP4 Произвольный / H264 > X264 CBR 2000kbps HQ / AC3 > AC3 CBR 384kbps
Video
ID : 1
Формат : AVC
Формат/Info : Advanced Video Кодек
Формат profile : High@L4.1
Формат настройки, CABAC : Yes
Формат настройки, ReFrames : 4 frames
Кодек ID : avc1
Кодек ID/Info : Advanced Video Coding
Длительность : 42 min
Битрейт : 2 000 kb/s
Width : 1 024 пикселей
Высота : 576 пикселей
Соотношение кадра : 16:9
Частота кадров mode : Constant
Частота кадров : 23.976 (24000/1001) FPS
Цветопередача : YUV
Chroma subsampling : 4:2:0
Разрядность : 8 bits
Тип сканирования : Progressive
Bits/(Pixel*Frame) : 0.141
Размер потока : 600 MiB (84%)
Writing library : x264 core 148 r2705M 3f5ed56
Encoding настройки : cabac=1 / ref=3 / deblock=1:-1:-1 / analyse=0x3:0x133 / me=hex / subme=7 / psy=1 / psy_rd=1.00:0.20 / mixed_ref=1 / me_range=16 / chroma_me=1 / trellis=1 / 8x8dct=1 / cqm=0 / deadzone=21,11 / fast_pskip=1 / chroma_qp_offset=-3 / threads=5 / lookahead_threads=1 / sliced_threads=0 / nr=0 / decimate=1 / interlaced=0 / bluray_compat=0 / constrained_intra=0 / bframes=3 / b_pyramid=2 / b_adapt=2 / b_bias=0 / direct=3 / weightb=1 / open_gop=0 / weightp=2 / keyint=230 / keyint_min=23 / scenecut=40 / intra_refresh=0 / rc_lookahead=40 / rc=cbr / mbtree=1 / bitrate=2000 / ratetol=1.0 / qcomp=0.60 / qpmin=0 / qpmax=69 / qpstep=4 / vbv_maxrate=2000 / vbv_bufsize=30000 / nal_hrd=none / filler=0 / ip_ratio=1.40 / aq=1:1.00
Color range : Limited
Color primaries : BT.709
Transfer characteristics : BT.709
Matrix coefficients : BT.709
Audio
ID : 2
Формат : AC-3
Формат/Info : Audio Coding 3
Расширение режима : CM (complete main)
Формат настройки, Endianness : Big
Кодек ID : ac-3
Длительность : 42 min
Битрейт mode : Constant
Битрейт : 384 kb/s
Channel(s) : 2 канала
Channel positions : Front: L R
Частота : 48.0 kHz
Частота кадров : 31.250 FPS (1536 spf)
Разрядность : 16 bits
Режим сжатия : Lossy
Размер потока : 115 MiB (16%)
Язык : Russian
Default : Yes
Alternate group : 1

Скриншоты

[Профиль] [ЛС]
Кто просматривает тему:

Форум Тема Автор Размер
Фильмы 2014 года 13 грехов / 13 Sins (Даниэль Штамм / Daniel Stamm) [2014, США, Триллер, Ужасы, HDRip-AVC] Dub (Line) + Sub Rus TorrentFilm 2.19 GB
Фильмы 2014 года 13 грехов / 13 Sins (Даниэль Штамм / Daniel Stamm) [2014, США, триллер, ужасы, HDRip-AVC] VO bot 744 MB
Фильмы 2014 года 13 грехов / 13 Sins (Даниэль Штамм / Daniel Stamm) [2014, США, триллер, ужасы, HDRip-AVC] VO + Eng bot 1.45 GB
Фильмы 2014 года 13 грехов / 13 Sins (Даниэль Штамм / Daniel Stamm) [2014, США, триллер, ужасы, HDRip] Dub (Line) TorrentFilm 1.37 GB
Фильмы 2014 года 13 грехов / 13 Sins (Даниэль Штамм / Daniel Stamm) [2014, США, триллер, ужасы, HDRip] Dub (Звук с TS) bot 1.37 GB
Фильмы 2014 года 13 грехов / 13 Sins (Даниэль Штамм) [2014 г., Триллер,Ужасы, HDRip] BOSS 1.37 GB
Фильмы 2006-2008 года Вирус Андромеда / Штамм Андромеда / The Andromeda Strain (2008) HDRip sergej644 1.47 GB
Зарубежные сериалы Штамм / The Strain (Сезон 2, Серия 1-13 из 13) (Гильермо дель Торо, Дэвид Семел, ) [2015, Ужасы, фантастика, драма, вампиры, экранизация, WEBDLRip 1080р] [MVO] [LostFilm ,AlexFilm , NewStudio... Враг Нароода 33.88 GB
Показать сообщения:    

Текущее время: Сегодня 20:12

Часовой пояс: GMT



Вы не можете начинать темы
Вы не можете отвечать на сообщения
Вы не можете редактировать свои сообщения
Вы не можете удалять свои сообщения
Вы не можете голосовать в опросах
Вы не можете прикреплять файлы к сообщениям
Вы не можете скачивать файлы