Шпион / Spy (Пол Фиг / Paul Feig) [2015, США, боевик, комедия, криминал, HDRip] [Театральная версия] Dub

 
Автор Сообщение

TorrentFilm ®

Пол:

Стаж: 2 года

Сообщений: 7741



Награды: Нет

Торрент-статистика

Создавать темы 17-Окт-2015 10:14

[Цитировать]

Шпион / Spy- Страна: США
Жанр: боевик, комедия, криминал
Год выпуска: 2015
Продолжительность: 02:00:06
Перевод: Профессиональный (дублированный)
Cубтитры: нет-Режиссер: Пол Фиг / Paul Feig-В ролях: Мелисса МакКарти, Джейсон Стэйтем, Джуд Лоу, Роуз Бирн, Миранда Харт, Бобби Каннавале, Морена Баккарин, Питер Серафинович, Эллисон Дженни, Ричард Брэйк.-Описание: Сьюзан Купер всю свою жизнь мечтала стать секретным агентом и даже устроилась работать в ЦРУ. Однако, дальше сотрудника самой низкой ступени ей так и не удалось продвинуться. Понимая, что осуществить свою мечту практически невозможно, она все-таки продолжает надеяться на лучшее и с нетерпением ожидает своего шанса. И вскоре судьба дарит ей такую возможность. Лучший агент проваливает секретное задание, в ходе которого он должен был выяснить местонахождение ядерной бомбы, но, совершенно случайно, застрелил единственного человека, владеющего этой информацией. Через некоторое время службе разведки становится известно, что Рейна Боянова знает, где находится бомба, но она также знает в лицо всех секретных агентов ЦРУ. Теперь у руководства не остается другого выбора, как воспользоваться услугами Сьюзан Купер, но сможет ли она справиться со столь сложной миссией?..-Download sample-Качество видео: HDRip (Scarabey)
Формат видео: AVI
Видео: 640x272 (2.35:1), 23.976 fps, XviD build 73 ~734 kbps avg, 0.18 bit/pixel
Аудио: 48 kHz, MPEG Layer 3, 2 ch, ~128.00 kbps avg

Инфо

Format : AVI
Format/Info : Audio Video Interleave
File size : 748 MiB
Duration : 2h 0mn
Overall bit rate : 871 Kbps
Writing application : VirtualDubMod 1.5.10.3 | www.virtualdub-fr.org || (build 2550/release)
Writing library : VirtualDubMod build 2550/release
Video
ID : 0
Format : MPEG-4 Visual
Format profile : Advanced Simple@L5
Format settings, BVOP : Yes
Format settings, QPel : No
Format settings, GMC : No warppoints
Format settings, Matrix : Custom
Codec ID : XVID
Codec ID/Hint : XviD
Duration : 2h 0mn
Bit rate : 734 Kbps
Width : 640 pixels
Height : 272 pixels
Display aspect ratio : 2.35:1
Frame rate : 23.976 fps
Color space : YUV
Chroma subsampling : 4:2:0
Bit depth : 8 bits
Scan type : Progressive
Bits/(Pixel*Frame) : 0.176
Stream size : 630 MiB (84%)
Writing library : XviD 73
Audio
ID : 1
Format : MPEG Audio
Format version : Version 1
Format profile : Layer 3
Codec ID : 55
Codec ID/Hint : MP3
Duration : 2h 0mn
Bit rate mode : Constant
Bit rate : 128 Kbps
Channel(s) : 2 channels
Sampling rate : 48.0 KHz
Stream size : 110 MiB (15%)
Alignment : Aligned on interleaves
Interleave, duration : 42 ms (1.00 video frame)
Interleave, preload duration : 504 ms
Writing library : LAME3.99r
Encoding settings : -m s -V 4 -q 2 -lowpass 17 -b 128

Скриншоты

[Профиль] [ЛС]
Кто просматривает тему:

Форум Тема Автор Размер
Документальные HD 3D шпионы во Второй мировой войне / 3D Spies of WWII. Destroying Hitler\'s Top Secret Rockets (Тим Данн / Tim Dunn) [2011, Документальный, война, история, HDTVRip 720p] TorrentFilm 1.25 GB
Action Death to Spies: Moment of Truth / Смерть шпионам: Момент истины [L] [RUS / RUS] (2008) TorrentFilm 4.01 GB
Discovery Discovery: Шпионы в берлинском тоннеле / Discovery: Spies Beneath Berlin (Сэм Бенстид / Sam Benstead, Джонатан Хакер / Jonathan Hacker) [2011, Документальный, SATRip] reversefile 471 MB
Viasat History Viasat History: Мастера шпионажа / History's Ultimate Spies (Spymaster) [сезон 1 серии 1-6 из 6] (Bruce Burgess) [2015 г., Документально-постановочный, история, HDTVRip 720p] skorpionN 9.3 GB
Фильмы (DVD 5/9) «Богатырь» идёт в Марто (Евгений Брюнчугин, Сигизмунд Навроцкий) [1954, СССР, Приключения, шпионский, DVD5] TorrentFilm 2.46 GB
Зарубежные мультфильмы Барби и команда шпионов / Barbie: Spy Squad (2016) BDRip | Лицензия достали все 1.47 GB
Зарубежные мультфильмы Барби и команда шпионов / Barbie: Spy Squad (2016) DVDRip | Line достали все 1.37 GB
Кино СССР Без срока давности (Эдгар Ходжикян) [1986, детектив, шпионский, TVRip] sergej644 1.37 GB
Показать сообщения:    

Текущее время: Сегодня 22:22

Часовой пояс: GMT



Вы не можете начинать темы
Вы не можете отвечать на сообщения
Вы не можете редактировать свои сообщения
Вы не можете удалять свои сообщения
Вы не можете голосовать в опросах
Вы не можете прикреплять файлы к сообщениям
Вы не можете скачивать файлы