Шпион / Spy (Пол Фиг / Paul Feig) [2015 г., США, боевик, комедия, BDRip] [Расширенная версия / Extended cut] Dub + Ukr + Original Eng + Sub (Rus, Ukr, Eng)

 
Автор Сообщение

TorrentFilm ®

Пол:

Стаж: 2 года

Сообщений: 7741



Награды: Нет

Торрент-статистика

Создавать темы 12-Окт-2015 00:11

[Цитировать]

-Шпион / Spy
Расширенная версия / Extended cut
«Одна из пижонов. Одна из шпионов» Страна: США
Студия: Chernin Entertainment, Feigco Entertainment, Twentieth Century Fox
Жанр: боевик, комедия
Год выпуска: 2015
Продолжительность: 02:10:22-Перевод: Профессиональный (полное дублирование) BD EUR
Оригинальная аудиодорожка: английская
Cубтитры: русские, украинские, английские
Режиссер: Пол Фиг / Paul Feig
В ролях: Мелисса МакКарти, Джейсон Стэйтем, Джуд Лоу, Роуз Бирн, Миранда Харт, Бобби Каннавале, Морена Баккарин, Питер Серафинович, Эллисон Дженни, Ричард Брэйк
Описание: Сьюзан Купер всю свою жизнь мечтала стать секретным агентом и даже устроилась работать в ЦРУ. Однако, дальше сотрудника самой низкой ступени ей так и не удалось продвинуться. Понимая, что осуществить свою мечту практически невозможно, она все-таки продолжает надеяться на лучшее и с нетерпением ожидает своего шанса. И вскоре судьба дарит ей такую возможность. Лучший агент проваливает секретное задание, в ходе которого он должен был выяснить местонахождение ядерной бомбы, но, совершенно случайно, застрелил единственного человека, владеющего этой информацией.
Через некоторое время службе разведки становится известно, что Рейна Боянова знает, где находится бомба, но она также знает в лицо всех секретных агентов ЦРУ. Теперь у руководства не остается другого выбора, как воспользоваться услугами Сьюзан Купер, но сможет ли она справиться со столь сложной миссией?..-
Сэмпл: скачать-Релиз от -
Автор рипа: Elheym
Качество: BDRip (источник: / Blu-ray Remux [SPY_UNRATED_REMUX_HDCLUB] / 1080p)
Контейнер: AVI
Видео: 720x304 (2.37:1), 23.976 fps, XviD build 67 ~1941 kbps avg, 0.37 bit/pixel
Аудио #1: Русский: AC3, 5.1, 48 kHz, ~448 Кбит/с | Профессиональный (полное дублирование), BD EUR |
Аудио #2: Украинский: AC3, 5.1, 48 kHz, ~448 Кбит/с | Профессиональный (полное дублирование) BD EUR | (отдельно, в составе раздачи)
Аудио #3: Английский: AC3, 5.1, 48 kHz, ~448 Кбит/с | Оригинал | (отдельно, в составе раздачи)
Субтитры: русские (полные, форсированные), украинские (полные, форсированные), английские (полные x2, форсированные, SDH, SDH цветные)
Размер: 2234.29 Mb (1/2 DVD)

MediaInfo

Полное имя : Shpion.2015.RUS.BDRip.XviD.AC3.-HQCLUB.avi
Формат : AVI
Формат/Информация : Audio Video Interleave
Профиль формата : OpenDML
Размер файла : 2,18 Гбайт
Продолжительность : 2 ч. 10 м.
Общий поток : 2396 Кбит/сек
Название фильма : Шпион / Spy [Extended Cut] (2015) BDRip
Режиссёр : Elheym
Программа кодирования : VirtualDubMod 1.5.10.2 (build 2540/release)
Авторское право : HQCLUB
Примечание : 09.10.2015
Видео
Идентификатор : 0
Формат : MPEG-4 Visual
Профиль формата : Advanced Simple@L5
Параметр BVOP формата : 1
Параметр QPel формата : Нет
Параметр GMC формата : Без точки перехода
Параметр матрицы формата : Выборочная
Идентификатор кодека : XVID
Идентификатор кодека/Подсказка : XviD
Продолжительность : 2 ч. 10 м.
Битрейт : 1936 Кбит/сек
Ширина : 720 пикселей
Высота : 304 пикселя
Соотношение сторон : 2,35:1
Частота кадров : 23,976 кадра/сек
Цветовое пространство : YUV
Субдискретизация насыщенности : 4:2:0
Битовая глубина : 8 бит
Тип развёртки : Прогрессивная
Метод сжатия : С потерями
Бит/(Пиксели*Кадры) : 0.369
Размер потока : 1,76 Гбайт (81%)
Библиотека кодирования : XviD 67
Аудио
Идентификатор : 1
Формат : AC-3
Формат/Информация : Audio Coding 3
Расширение режима : CM (complete main)
Параметр Endianness формата : Big
Идентификатор кодека : 2000
Продолжительность : 2 ч. 10 м.
Вид битрейта : Постоянный
Битрейт : 448 Кбит/сек
Каналы : 6 каналов
Расположение каналов : Front: L C R, Side: L R, LFE
Частота : 48,0 КГц
Метод сжатия : С потерями
Размер потока : 418 Мбайт (19%)
Выравнивание : Разделение по промежуткам
Продолжительность промежутка : 42 мс. (1,00 видеокадр)
Время предзагрузки промежутка : 500 мс.

Скриншоты

Расширенная версия длиннее театральной на 10 минут! Полный лицензионный дубляж!
[Профиль] [ЛС]
Кто просматривает тему:

Форум Тема Автор Размер
Документальные HD 3D шпионы во Второй мировой войне / 3D Spies of WWII. Destroying Hitler\'s Top Secret Rockets (Тим Данн / Tim Dunn) [2011, Документальный, война, история, HDTVRip 720p] TorrentFilm 1.25 GB
Action Death to Spies: Moment of Truth / Смерть шпионам: Момент истины [L] [RUS / RUS] (2008) TorrentFilm 4.01 GB
Discovery Discovery: Шпионы в берлинском тоннеле / Discovery: Spies Beneath Berlin (Сэм Бенстид / Sam Benstead, Джонатан Хакер / Jonathan Hacker) [2011, Документальный, SATRip] reversefile 471 MB
Viasat History Viasat History: Мастера шпионажа / History's Ultimate Spies (Spymaster) [сезон 1 серии 1-6 из 6] (Bruce Burgess) [2015 г., Документально-постановочный, история, HDTVRip 720p] skorpionN 9.3 GB
Фильмы (DVD 5/9) «Богатырь» идёт в Марто (Евгений Брюнчугин, Сигизмунд Навроцкий) [1954, СССР, Приключения, шпионский, DVD5] TorrentFilm 2.46 GB
Зарубежные мультфильмы Барби и команда шпионов / Barbie: Spy Squad (2016) BDRip | Лицензия достали все 1.47 GB
Зарубежные мультфильмы Барби и команда шпионов / Barbie: Spy Squad (2016) DVDRip | Line достали все 1.37 GB
Кино СССР Без срока давности (Эдгар Ходжикян) [1986, детектив, шпионский, TVRip] sergej644 1.37 GB
Показать сообщения:    

Текущее время: Сегодня 06:28

Часовой пояс: GMT



Вы не можете начинать темы
Вы не можете отвечать на сообщения
Вы не можете редактировать свои сообщения
Вы не можете удалять свои сообщения
Вы не можете голосовать в опросах
Вы не можете прикреплять файлы к сообщениям
Вы не можете скачивать файлы