Шпион (Алексей Андрианов) [2012, Россия, триллер, детектив, приключения, BDRip 720p] Original Rus

 
Автор Сообщение

TorrentFilm ®

Пол:

Стаж: 2 года

Сообщений: 7741



Награды: Нет

Торрент-статистика

Создавать темы 01-Янв-2016 00:07

[Цитировать]

--Шпион«Остановить неизбежное»-- Год выпуска: 2012
Страна: Россия
Студия: Канал Россия, Студия Тритэ
Жанр: триллер, детектив, приключения
Продолжительность: 01:49:33
Перевод: Оригинал (лицензия)
Cубтитры: нет
Оригинальная аудиодорожка: Русский--Режиссер: Алексей Андрианов / Aleksei Andrianov
В ролях: Данила Козловский, Фёдор Бондарчук, Владимир Епифанцев, Сергей Газаров, Виктор Вержбицкий, Виктория Толстоганова, Анна Чиповская, Алексей Горбунов, Алексей Гаврилов, Екатерина Мельник
Описание: Весна 1941 года. В центре Москвы разворачивается напряжённый поединок двух разведок. Цель тайной операции Гитлера - дезинформировать Сталина о планах нападения Германии на Советский Союз.
Старший майор Октябрьский и лейтенант Дорин против гения фашистского шпионажа. Схватка на фоне большой истории, освещенной заревом грядущей войны.
--Доп. информация: Сохранены оригинальные чаптеры как на Blu-ray.


Релиз от: by HANSMER--Тип релиза: BDRip 720p [Рип от NiP!]
Формат: MKV
Видео: MPEG-4 AVC, 1280x544 (2,35:1), at 23,976 fps, ~5073 kbps avg, High Profile 4.1
Аудио: AC3, 48 kHz, 3/2 (L,C,R,l,r) + LFE ch, ~640 kbps avg [Russian]

MediaInfo

Полное имя                       : Shpion.2012.Blu-ray.720p.x264-NiP.mkv
Формат                           : Matroska
Версия формата                   : Version 2
Размер файла                     : 4,37 Гбайт
Продолжительность                : 1 ч. 49 м.
Общий поток                      : 5710 Кбит/сек
Дата кодирования                 : UTC 2012-05-26 09:39:23
Программа кодирования            : mkvmerge v5.5.0 ('Healer') built on Apr  6 2012 21:43:24
Библиотека кодирования           : libebml v1.2.3 + libmatroska v1.3.0
Видео
Идентификатор                    : 1
Формат                           : AVC
Формат/Информация                : Advanced Video Codec
Профиль формата                  : High@L4.1
Параметр CABAC формата           : Да
Параметр ReFrames формата        : 12 кадров
Идентификатор кодека             : V_MPEG4/ISO/AVC
Продолжительность                : 1 ч. 49 м.
Битрейт                          : 5073 Кбит/сек
Ширина                           : 1280 пикселей
Высота                           : 544 пикселя
Соотношение сторон               : 2,35:1
Частота кадров                   : 23,976 кадра/сек
Цветовое пространство            : YUV
Субдискретизация насыщенности    : 4:2:0
Битовая глубина                  : 8 бит
Тип развёртки                    : Прогрессивная
Бит/(Пиксели*Кадры)              : 0.304
Размер потока                    : 3,79 Гбайт (87%)
Заголовок                        : Shpion.2012.Blu-ray.720p.x264-NiP
Библиотека кодирования           : x264 core 124 r2197 69a0443
Настройки программы              : cabac=1 / ref=12 / deblock=1:-3:-3 / analyse=0x3:0x113 / me=tesa / subme=11 / psy=1 / psy_rd=0.95:0.00 / mixed_ref=1 / me_range=24 / chroma_me=1 / trellis=2 / 8x8dct=1 / cqm=0 / deadzone=21,11 / fast_pskip=0 / chroma_qp_offset=-2 / threads=12 / sliced_threads=0 / nr=0 / decimate=0 / interlaced=0 / bluray_compat=0 / constrained_intra=0 / bframes=7 / b_pyramid=2 / b_adapt=2 / b_bias=0 / direct=3 / weightb=1 / open_gop=0 / weightp=2 / keyint=240 / keyint_min=24 / scenecut=40 / intra_refresh=0 / rc_lookahead=60 / rc=2pass / mbtree=0 / bitrate=5073 / ratetol=1.0 / qcomp=0.70 / qpmin=0 / qpmax=69 / qpstep=4 / cplxblur=20.0 / qblur=0.5 / vbv_maxrate=50000 / vbv_bufsize=62500 / nal_hrd=none / ip_ratio=1.40 / pb_ratio=1.30 / aq=1:1.00
Язык                             : Russian
Коэффициенты матрицы             : BT.709-5, BT.1361, IEC 61966-2-4 709, SMPTE RP177
Аудио
Идентификатор                    : 2
Формат                           : AC-3
Формат/Информация                : Audio Coding 3
Расширение режима                : CM (complete main)
Идентификатор кодека             : A_AC3
Продолжительность                : 1 ч. 49 м.
Вид битрейта                     : Постоянный
Битрейт                          : 640 Кбит/сек
Каналы                           : 6 каналов
Расположение каналов             : Front: L C R, Side: L R, LFE
Частота                          : 48,0 КГц
Битовая глубина                  : 16 бит
Метод сжатия                     : С потерями
Размер потока                    : 502 Мбайт (11%)
Язык                             : Russian
Меню
00:00:00.000                     : ru:Глава 1
00:10:22.038                     : ru:Глава 2
00:20:24.723                     : ru:Глава 3
00:30:24.823                     : ru:Глава 4
00:41:08.966                     : ru:Глава 5
00:52:50.376                     : ru:Глава 6
01:02:55.397                     : ru:Глава 7
01:12:49.907                     : ru:Глава 8
01:24:32.401                     : ru:Глава 9
01:34:46.347                     : ru:Глава 10
01:45:11.931                     : ru:Глава 11

Скриншоты

Source.................vs.................Encode




[Профиль] [ЛС]
Кто просматривает тему:

Форум Тема Автор Размер
Документальные HD 3D шпионы во Второй мировой войне / 3D Spies of WWII. Destroying Hitler\'s Top Secret Rockets (Тим Данн / Tim Dunn) [2011, Документальный, война, история, HDTVRip 720p] TorrentFilm 1.25 GB
Action Death to Spies: Moment of Truth / Смерть шпионам: Момент истины [L] [RUS / RUS] (2008) TorrentFilm 4.01 GB
Discovery Discovery: Шпионы в берлинском тоннеле / Discovery: Spies Beneath Berlin (Сэм Бенстид / Sam Benstead, Джонатан Хакер / Jonathan Hacker) [2011, Документальный, SATRip] reversefile 471 MB
Viasat History Viasat History: Мастера шпионажа / History's Ultimate Spies (Spymaster) [сезон 1 серии 1-6 из 6] (Bruce Burgess) [2015 г., Документально-постановочный, история, HDTVRip 720p] skorpionN 9.3 GB
Фильмы (DVD 5/9) «Богатырь» идёт в Марто (Евгений Брюнчугин, Сигизмунд Навроцкий) [1954, СССР, Приключения, шпионский, DVD5] TorrentFilm 2.46 GB
Зарубежные мультфильмы Барби и команда шпионов / Barbie: Spy Squad (2016) BDRip | Лицензия достали все 1.47 GB
Зарубежные мультфильмы Барби и команда шпионов / Barbie: Spy Squad (2016) DVDRip | Line достали все 1.37 GB
Кино СССР Без срока давности (Эдгар Ходжикян) [1986, детектив, шпионский, TVRip] sergej644 1.37 GB
Показать сообщения:    

Текущее время: Сегодня 09:09

Часовой пояс: GMT



Вы не можете начинать темы
Вы не можете отвечать на сообщения
Вы не можете редактировать свои сообщения
Вы не можете удалять свои сообщения
Вы не можете голосовать в опросах
Вы не можете прикреплять файлы к сообщениям
Вы не можете скачивать файлы