Шпион, выйди вон! / Tinker Tailor Soldier Spy (2011) BDRip 720p | A,D Лицензия

 
Автор Сообщение

sergej644 ®

Пол:

Стаж: 4 года 11 месяцев

Сообщений: 6040

Откуда: Soviet Union



Награды: Нет

Торрент-статистика

Создавать темы 08-Фев-2015 19:42

[Цитировать]

Шпион, выйди вон! / Tinker Tailor Soldier Spy (2011) BDRip 720p | A,D Лицензия
«Секретная информация будет раскрыта»
Название: Шпион, выйди вон!
Оригинальное название: Tinker Tailor Soldier Spy
Год выпуска: 2011
Производство: Франция, Великобритания, Германия / © 2011 Karla Films Ltd. Distributed by STUDIOCANAL LIMITED
Жанр: триллер, детектив
Режиссер: Томас Альфредсон
Актеры: Гари Олдман, Колин Фёрт, Том Харди, Джон Хёрт, Тоби Джонс, Марк Стронг, Бенедикт Камбербэтч, Киаран Хайндс
Описание:
Многие сотрудники британской разведки догадывались, что в ее руководстве давно засел "крот", работающий на Россию. Но те, кто отваживался об этом заявлять открыто, почему-то оказывались в отставке. Остальные предпочитали помалкивать. Но подтверждение существования русского агента пришло с совсем неожиданной стороны. Начинается тайное расследование, возглавляемое находящимся в отставке Джорджем Смайли. И никто, включая высшее руководство разведки, не должен догадаться, что на крота снова объявлена охота.

Продолжительность: 02:07:23
Перевод: Дублированный [R5]. Авторский (одноголосый закадровый) [Визгунов]
Cубтитры: Русский, Английский
Качество: BDRip [720p]
Видео: MPEG-4 AVC/H.264, 1280x544 (2.35:1), 7 900 kbps, 23.976 fps
Аудио 1: Русский/Дублированный [R5], AC3 / 5.1 / 384 Kbps / 48.0 KHz
Аудио 2: Русский/Авторский (одноголосый закадровый) [Визгунов], AC3 / 5.1 / 448 Kbps / 48.0 KHz
Аудио 3: Английский/Оригинальный, AC3 / 5.1 / 448 Kbps / 48.0 KHz

MediaInfo

General
Unique ID                                : 210600539159074474281276143603099756476 (0x9E70303F60811D90949703FF2CC5E7BC)
Complete name                            : C:CREATE264mod1outTinker.Tailor.Soldier.Spy.2011.BDRip.720p.DA.mkv
Format                                   : Matroska
Format version                           : Version 4 / Version 2
File size                                : 8.18 GiB
Duration                                 : 2h 7mn
Overall bit rate                         : 9 194 Kbps
Movie name                               : Tinker.Tailor.Soldier.Spy.2011
Encoded date                             : UTC 2014-09-23 07:01:00
Writing application                      : mkvmerge v7.2.0 ('On Every Street') 64bit built on Sep 13 2014 15:52:10
Writing library                          : libebml v1.3.0 + libmatroska v1.4.1
DURATION                                 : 02:07:22.688000000
NUMBER_OF_FRAMES                         : 238834
NUMBER_OF_BYTES                          : 427990528
_STATISTICS_WRITING_APP                  : mkvmerge v7.2.0 ('On Every Street') 64bit built on Sep 13 2014 15:52:10
_STATISTICS_WRITING_DATE_UTC             : 2014-09-23 07:01:00
_STATISTICS_TAGS                         : BPS DURATION NUMBER_OF_FRAMES NUMBER_OF_BYTES
Attachment                               : Yes / Yes
Video
ID                                       : 1
Format                                   : AVC
Format/Info                              : Advanced Video Codec
Format profile                           : High@L4.1
Format settings, CABAC                   : Yes
Format settings, ReFrames                : 9 frames
Codec ID                                 : V_MPEG4/ISO/AVC
Duration                                 : 2h 7mn
Bit rate                                 : 7 731 Kbps
Width                                    : 1 280 pixels
Height                                   : 544 pixels
Display aspect ratio                     : 2.35:1
Frame rate mode                          : Constant
Frame rate                               : 23.976 fps
Color space                              : YUV
Chroma subsampling                       : 4:2:0
Bit depth                                : 8 bits
Scan type                                : Progressive
Bits/(Pixel*Frame)                       : 0.463
Stream size                              : 6.88 GiB (84%)
Title                                    : Tinker.Tailor.Soldier.Spy.2011
Language                                 : English
Default                                  : Yes
Forced                                   : No
Matrix coefficients                      : BT.709
DURATION                                 : 02:07:22.685000000
NUMBER_OF_FRAMES                         : 183241
NUMBER_OF_BYTES                          : 7557755721
_STATISTICS_WRITING_APP                  : mkvmerge v7.2.0 ('On Every Street') 64bit built on Sep 13 2014 15:52:10
_STATISTICS_WRITING_DATE_UTC             : 2014-09-23 07:01:00
_STATISTICS_TAGS                         : BPS DURATION NUMBER_OF_FRAMES NUMBER_OF_BYTES
Audio #1
ID                                       : 2
Format                                   : AC-3
Format/Info                              : Audio Coding 3
Mode extension                           : CM (complete main)
Format settings, Endianness              : Big
Codec ID                                 : A_AC3
Duration                                 : 2h 7mn
Bit rate mode                            : Constant
Bit rate                                 : 384 Kbps
Channel(s)                               : 6 channels
Channel positions                        : Front: L C R, Side: L R, LFE
Sampling rate                            : 48.0 KHz
Bit depth                                : 16 bits
Compression mode                         : Lossy
Stream size                              : 350 MiB (4%)
Title                                    : DUB [R5]
Language                                 : Russian
Default                                  : Yes
Forced                                   : Yes
Audio #2
ID                                       : 3
Format                                   : AC-3
Format/Info                              : Audio Coding 3
Mode extension                           : CM (complete main)
Format settings, Endianness              : Big
Codec ID                                 : A_AC3
Duration                                 : 2h 7mn
Bit rate mode                            : Constant
Bit rate                                 : 448 Kbps
Channel(s)                               : 6 channels
Channel positions                        : Front: L C R, Side: L R, LFE
Sampling rate                            : 48.0 KHz
Bit depth                                : 16 bits
Compression mode                         : Lossy
Stream size                              : 408 MiB (5%)
Title                                    : AVO [Vizgunov]
Language                                 : Russian
Default                                  : No
Forced                                   : No
Audio #3
ID                                       : 4
Format                                   : AC-3
Format/Info                              : Audio Coding 3
Mode extension                           : CM (complete main)
Format settings, Endianness              : Big
Codec ID                                 : A_AC3
Duration                                 : 2h 7mn
Bit rate mode                            : Constant
Bit rate                                 : 448 Kbps
Channel(s)                               : 6 channels
Channel positions                        : Front: L C R, Side: L R, LFE
Sampling rate                            : 48.0 KHz
Bit depth                                : 16 bits
Compression mode                         : Lossy
Stream size                              : 408 MiB (5%)
Title                                    : original
Language                                 : English
Default                                  : No
Forced                                   : No
Text #1
ID                                       : 5
Format                                   : UTF-8
Codec ID                                 : S_TEXT/UTF8
Codec ID/Info                            : UTF-8 Plain Text
Title                                    : Full
Language                                 : Russian
Default                                  : No
Forced                                   : No
Text #2
ID                                       : 6
Format                                   : UTF-8
Codec ID                                 : S_TEXT/UTF8
Codec ID/Info                            : UTF-8 Plain Text
Title                                    : Full
Language                                 : English
Default                                  : No
Forced                                   : No
Menu
00:00:00.000                             : en:
00:12:39.800                             : en:
00:22:44.654                             : en:
00:35:04.852                             : en:
00:48:35.913                             : en:
00:59:11.256                             : en:
01:10:34.521                             : en:
01:24:45.705                             : en:
01:34:48.808                             : en:
01:41:51.146                             : en:
01:51:18.421                             : en:
02:00:19.337                             : en:

x264 лог

x264 [info]: frame I:1052  Avg QP:15.73  size:133980
x264 [info]: frame P:28504 Avg QP:19.68  size: 62176
x264 [info]: frame B:153685 Avg QP:20.28  size: 36728
x264 [info]: consecutive B-frames:  0.9%  0.9%  1.5%  6.2% 12.4% 19.8% 15.1% 12.2% 18.6%  6.9%  0.5%
x264 [info]: mb I  I16..4: 32.9% 49.0% 18.1%
x264 [info]: mb P  I16..4:  1.1% 19.3%  1.6%  P16..4: 21.1% 31.1% 14.9%  3.6%  0.4%    skip: 6.8%
x264 [info]: mb B  I16..4:  0.1%  6.3%  0.1%  B16..8: 38.8% 24.8%  7.3%  direct:10.0%  skip:12.7%  L0:46.4% L1:42.2% BI:11.3%
x264 [info]: 8x8 transform intra:90.9% inter:51.6%
x264 [info]: coded y,uvDC,uvAC intra: 98.9% 48.7% 15.2% inter: 64.1% 19.4% 2.6%
x264 [info]: i16 v,h,dc,p:  6%  3% 40% 51%
x264 [info]: i8 v,h,dc,ddl,ddr,vr,hd,vl,hu:  8%  7% 19% 10% 12% 11% 11% 10% 12%
x264 [info]: i4 v,h,dc,ddl,ddr,vr,hd,vl,hu: 10%  9%  9%  9% 13% 12% 12% 11% 13%
x264 [info]: i8c dc,h,v,p: 33% 36% 20% 11%
x264 [info]: Weighted P-Frames: Y:4.8% UV:1.4%
x264 [info]: ref P L0: 41.7% 10.1% 18.2%  9.2%  6.8%  5.2%  4.2%  2.5%  2.1%  0.1%  0.0%
x264 [info]: ref B L0: 65.9% 13.8%  8.0%  4.2%  3.1%  2.4%  2.0%  0.7%
x264 [info]: ref B L1: 87.3% 12.7%
x264 [info]: kb/s:7911.10

Screenshots

--
[Профиль] [ЛС]
Кто просматривает тему:

Форум Тема Автор Размер
Документальные HD 3D шпионы во Второй мировой войне / 3D Spies of WWII. Destroying Hitler\'s Top Secret Rockets (Тим Данн / Tim Dunn) [2011, Документальный, война, история, HDTVRip 720p] TorrentFilm 1.25 GB
Action Death to Spies: Moment of Truth / Смерть шпионам: Момент истины [L] [RUS / RUS] (2008) TorrentFilm 4.01 GB
Discovery Discovery: Шпионы в берлинском тоннеле / Discovery: Spies Beneath Berlin (Сэм Бенстид / Sam Benstead, Джонатан Хакер / Jonathan Hacker) [2011, Документальный, SATRip] reversefile 471 MB
Viasat History Viasat History: Мастера шпионажа / History's Ultimate Spies (Spymaster) [сезон 1 серии 1-6 из 6] (Bruce Burgess) [2015 г., Документально-постановочный, история, HDTVRip 720p] skorpionN 9.3 GB
Фильмы (DVD 5/9) «Богатырь» идёт в Марто (Евгений Брюнчугин, Сигизмунд Навроцкий) [1954, СССР, Приключения, шпионский, DVD5] TorrentFilm 2.46 GB
Зарубежные мультфильмы Барби и команда шпионов / Barbie: Spy Squad (2016) BDRip | Лицензия достали все 1.47 GB
Зарубежные мультфильмы Барби и команда шпионов / Barbie: Spy Squad (2016) DVDRip | Line достали все 1.37 GB
Кино СССР Без срока давности (Эдгар Ходжикян) [1986, детектив, шпионский, TVRip] sergej644 1.37 GB
Показать сообщения:    

Текущее время: Сегодня 00:41

Часовой пояс: GMT



Вы не можете начинать темы
Вы не можете отвечать на сообщения
Вы не можете редактировать свои сообщения
Вы не можете удалять свои сообщения
Вы не можете голосовать в опросах
Вы не можете прикреплять файлы к сообщениям
Вы не можете скачивать файлы