Шопо-коп / Герой супермаркета / Paul Blart: Mall Cop (Эндрю Флеминг / Andrew Fleming) [2009, США, боевик, комедия, криминал, BDRip] Dub + Original Eng + subs (Rus, Eng)

 
Автор Сообщение

TorrentFilm ®

Пол:

Стаж: 2 года

Сообщений: 7741



Награды: Нет

Торрент-статистика

Создавать темы 16-Сен-2015 00:09

[Цитировать]

Шопо-коп / Герой супермаркета / Paul Blart: Mall Cop- Год выпуска: 2009
Страна: США
Жанр: боевик, комедия, криминал
Продолжительность: 01:31:03
Перевод: Профессиональный (полное дублирование)
+ Оригинальная звуковая дорожка (отдельно)
Субтитры: Русские, английские (внешние srt*)-Режиссер: Эндрю Флеминг / Andrew Fleming
В ролях: Кевин Джеймс, Кейр О’Доннелл, Джейма Мейс, Рейни Родригес, Ширли Найт, Стефен Раннациси, Питер Герети, Бобби Каннавале, Адам Феррара, Джамал Миксон
О фильме: Несколько лет подряд Пол стремится попасть в ряды первых защитников Нью Джерси, но экзамен по физподготовке — серьезное препятствие на пути к заветной цели. Тем не менее, Пол остается верен долгу и как никто другой охраняет вверенный ему объект — крупнейший гипермаркет округа.
И, похоже, настал момент истины, когда грабители, переодетые помощниками Санты, захватывают здание и берут в заложники возлюбленную Пола. Он поклялся защищать гипермаркет и все, что в нем находится. И не смотря на кажущуюся мягкотелость, его помощь уже на подходе.
Являясь «глазами полиции» внутри гипермаркета, он пытается остановить грабителей собственными силами. Ведь в его арсенале немало неожиданных трюков. А сноровка и блестящая игра в кошки-мышки порой имеют свое преимущество перед физической формой. Итак, самый блестящий охранник гипермаркета становится настоящим полицейским, чтобы спасти главный шоппинг-день в году, людей и репутацию!-Релиз:
Автор: sociolog_melvas
Качество: BDRip (источник: / BD-Remux / 1080p)
Формат: AVI
Видео: 704x384 (1.83:1), 23,976 fps, XviD build 65 ~1826 kbps avg, 0.28 bit/pixel
Аудио: #1 48 kHz, AC3 Dolby Digital, 3/2 (L,C,R,l,r) + LFE ch, ~448.00 kbps avg rus
Аудио: #2 48 kHz, AC3 Dolby Digital, 3/2 (L,C,R,l,r) + LFE ch, ~448.00 kbps avg eng (отдельно)
Размер: 1487.31 Mb (1/3 DVD-R)
Скачать: Семпл-

Кадры из фильма


-

Mi

Формат : AVI
Формат/Информация : Audio Video Interleave
Размер файла : 1,45 Гбайт
Продолжительность : 1 ч. 31 м.
Общий поток : 2284 Кбит/сек
Название фильма : Шопо-коп / Герой супермаркета / Paul Blart: Mall Cop (2009) BDRip
Режиссёр : sociolog_melvas
Жанр : боевик, комедия, криминал
Программа кодирования : VirtualDubMod 1.5.10.2 (build 2540/release)
Правообладатель : HQCLUB
Примечание : 25.08.2015
Видео
Идентификатор : 0
Формат : MPEG-4 Visual
Профиль формата : Advanced Simple@L5
Параметр BVOP формата : 1
Параметр QPel формата : Нет
Параметр GMC формата : Без точки перехода
Параметр матрицы формата : Выборочная
Идентификатор кодека : XVID
Идентификатор кодека/Подсказка : XviD
Продолжительность : 1 ч. 31 м.
Битрейт : 1826 Кбит/сек
Ширина : 704 пикселя
Высота : 384 пикселя
Соотношение сторон : 1,85:1
Частота кадров : 23,976 кадра/сек
Цветовое пространство : YUV
Субдискретизация насыщенности : 4:2:0
Битовая глубина : 8 бит
Тип развёртки : Прогрессивная
Метод сжатия : С потерями
Бит/(Пиксели*Кадры) : 0.282
Размер потока : 1,16 Гбайт (80%)
Библиотека кодирования : XviD 65
Аудио
Идентификатор : 1
Формат : AC-3
Формат/Информация : Audio Coding 3
Расширение режима : CM (complete main)
Параметр Endianness формата : Big
Идентификатор кодека : 2000
Продолжительность : 1 ч. 31 м.
Вид битрейта : Постоянный
Битрейт : 448 Кбит/сек
Каналы : 6 каналов
Расположение каналов : Front: L C R, Side: L R, LFE
Частота : 48,0 КГц
Битовая глубина : 16 бит
Метод сжатия : С потерями
Размер потока : 292 Мбайт (20%)
Выравнивание : Разделение по промежуткам
Продолжительность промежутка : 42 мс. (1,00 видеокадр)
Время предзагрузки промежутка : 500 мс.
-
[Профиль] [ЛС]

Создавать темы 12-Июн-2016 08:13 (спустя 8 месяцев 26 дней)

Топик был перенесен из форума Фильмы 2011 года в форум Фильмы 2009 года
Russian Mafia
 
Кто просматривает тему:

Показать сообщения:    

Текущее время: Сегодня 13:01

Часовой пояс: GMT



Вы не можете начинать темы
Вы не можете отвечать на сообщения
Вы не можете редактировать свои сообщения
Вы не можете удалять свои сообщения
Вы не можете голосовать в опросах
Вы не можете прикреплять файлы к сообщениям
Вы не можете скачивать файлы