Шоколад / Chocolat (2016) BDRip 1080p | iTunes

 
Автор Сообщение

BOSS ®

Пол:

Стаж: 2 года 1 месяц

Сообщений: 3712

Откуда: ODESSA



Награды: 20 (Подробнее)

Top Seeder 4 (Количество: 1) Top Keeper 3 (Количество: 1) Top Releaser 4 (Количество: 1)
Торрент-статистика

Создавать темы 05-Сен-2016 04:55

[Цитировать]

Информация о фильме
Название: Шоколад
Оригинальное название: Chocolat
Год выпуска: 2016
Жанр: Драма
Режиссер: Рошди Зем
В ролях: Омар Си, Джеймс Тьерре, Клотильда Эм, Оливье Гурме, Фредерик Пьеро, Ноэми Львовски, Элис де Ланкесэ, Алекс Дека, Оливье Рабурден, Тибо де Монталембер
О фильме:
Это история первого во Франции чернокожего клоуна, выступавшего в тандеме с белым клоуном, вышедшим было в тираж, а с появлением нового партнера вернувшим себе былую славу. Их номера были чрезвычайно популярны в конце XIX века, но интерес к ним был востребован преимущественно из-за того, что белый клоун издевался над чернокожим.

Страна: Франция
Студия: Buenavista Films, Canal+ [fr], Centre National de la Cinématographie (CNC), Ciné
Продолжительность: 01:59:05
Перевод: Дублированный | iTunes
Файл
Качество: BDRip (1080p)
Видео: MPEG-4 AVC, 14,2 Мбит/с, 1920x1040
Аудио: Русский (AC3, 6 ch, 384 Кбит/с), французский (DTS, 6 ch, 1509 Кбит/с)
Субтитры: Французские

MI

Общее
Уникальный идентификатор : 248825409116794958508510661848533519080 (0xBB3207D7A5542BB3ACCB5DCEE15F4AE8)
Полное имя : C:TempSh0k0l4d.2016.D.BDRip.1080p.mkv
Формат : Matroska
Версия формата : Version 4 / Version 2
Размер файла : 13,4 Гбайт
Продолжительность : 1 ч. 59 м.
Общий поток : 16,1 Мбит/сек
Название фильма : Chocolat.2015.1080p.BluRay.DTS.x264-HR
Дата кодирования : UTC 2016-09-04 23:18:01
Программа кодирования : mkvmerge v8.3.0 ('Over the Horizon') 64bit
Библиотека кодирования : libebml v1.3.1 + libmatroska v1.4.2
Видео
Идентификатор : 1
Формат : AVC
Формат/Информация : Advanced Video Codec
Профиль формата : High@L4.1
Параметр CABAC формата : Да
Параметр ReFrames формата : 4 кадра
Идентификатор кодека : V_MPEG4/ISO/AVC
Продолжительность : 1 ч. 59 м.
Битрейт : 14,2 Мбит/сек
Ширина : 1920 пикселей
Высота : 1040 пикселей
Соотношение сторон : 1,85:1
Режим частоты кадров : Постоянный
Частота кадров : 24,000 кадра/сек
Цветовое пространство : YUV
Субдискретизация насыщенности : 4:2:0
Битовая глубина : 8 бит
Тип развёртки : Прогрессивная
Бит/(Пиксели*Кадры) : 0.297
Размер потока : 11,8 Гбайт (88%)
Библиотека кодирования : x264 core 148 r2692 64f4e24
Настройки программы : cabac=1 / ref=4 / deblock=1:-3:-3 / analyse=0x3:0x133 / me=umh / subme=11 / psy=1 / psy_rd=1.02:0.00 / mixed_ref=1 / me_range=64 / chroma_me=1 / trellis=2 / 8x8dct=1 / cqm=0 / deadzone=21,11 / fast_pskip=0 / chroma_qp_offset=-2 / threads=32 / lookahead_threads=5 / sliced_threads=0 / nr=0 / decimate=0 / interlaced=0 / bluray_compat=0 / constrained_intra=0 / bframes=8 / b_pyramid=2 / b_adapt=2 / b_bias=0 / direct=3 / weightb=1 / open_gop=0 / weightp=2 / keyint=250 / keyint_min=23 / scenecut=40 / intra_refresh=0 / rc_lookahead=120 / rc=crf / mbtree=0 / crf=16.9 / qcomp=0.65 / qpmin=0 / qpmax=69 / qpstep=4 / vbv_maxrate=62500 / vbv_bufsize=50000 / crf_max=0.0 / nal_hrd=none / filler=0 / ip_ratio=1.30 / pb_ratio=1.40 / aq=3:0.85
Язык : English
Default : Да
Forced : Нет
Аудио #1
Идентификатор : 2
Формат : AC-3
Формат/Информация : Audio Coding 3
Расширение режима : CM (complete main)
Параметр Endianness формата : Big
Идентификатор кодека : A_AC3
Продолжительность : 1 ч. 59 м.
Вид битрейта : Постоянный
Битрейт : 384 Кбит/сек
Каналы : 6 каналов
Расположение каналов : Front: L C R, Side: L R, LFE
Частота : 48,0 КГц
Частота кадров : 31,250 кадров/сек (1536 spf)
Метод сжатия : С потерями
Размер потока : 327 Мбайт (2%)
Язык : Russian
Default : Да
Forced : Нет
Аудио #2
Идентификатор : 3
Формат : DTS
Формат/Информация : Digital Theater Systems
Режим : 16
Параметр Endianness формата : Big
Идентификатор кодека : A_DTS
Продолжительность : 1 ч. 59 м.
Вид битрейта : Постоянный
Битрейт : 1509 Кбит/сек
Каналы : 6 каналов
Расположение каналов : Front: L C R, Side: L R, LFE
Частота : 48,0 КГц
Частота кадров : 93,750 кадра/сек (512 spf)
Битовая глубина : 16 бит
Метод сжатия : С потерями
Размер потока : 1,26 Гбайт (9%)
Заголовок : DTS 5.1 @ 1510 kbps
Язык : French
Default : Нет
Forced : Нет
Текст #1
Идентификатор : 4
Формат : UTF-8
Идентификатор кодека : S_TEXT/UTF8
Идентификатор кодека/Информация : UTF-8 Plain Text
Продолжительность : 1 ч. 58 м.
Битрейт : 47 бит/сек
Count of elements : 1720
Размер потока : 41,4 Кбайт (0%)
Заголовок : FULL SDH SRT
Язык : French
Default : Нет
Forced : Нет
Текст #2
Идентификатор : 5
Формат : PGS
Режим смешивания : zlib
Идентификатор кодека : S_HDMV/PGS
Идентификатор кодека/Информация : Picture based subtitle format used on BDs/HD-DVDs
Продолжительность : 1 ч. 58 м.
Битрейт : 33,1 Кбит/сек
Count of elements : 3440
Размер потока : 28,2 Мбайт (0%)
Заголовок : FULL SDH PGS
Язык : French
Default : Нет
Forced : Нет
Меню
00:00:00.000 : en:Chapter 01
00:14:48.416 : en:Chapter 02
00:29:34.333 : en:Chapter 03
00:45:51.916 : en:Chapter 04
00:59:31.333 : en:Chapter 05
01:14:59.375 : en:Chapter 06
01:30:02.000 : en:Chapter 07
01:44:37.666 : en:Chapter 08
01:59:03.875 : en:Chapter 09

Скриншоты


[Профиль] [ЛС]
Показать сообщения:    

Текущее время: Сегодня 09:55

Часовой пояс: GMT



Вы не можете начинать темы
Вы не можете отвечать на сообщения
Вы не можете редактировать свои сообщения
Вы не можете удалять свои сообщения
Вы не можете голосовать в опросах
Вы не можете прикреплять файлы к сообщениям
Вы не можете скачивать файлы