Шматрица / The Matrix (2003) BDRip 720p | Смешной перевод

 
Автор Сообщение

BOSS ®

Пол:

Стаж: 2 года 1 месяц

Сообщений: 3735

Откуда: ODESSA



Награды: 20 (Подробнее)

Top Keeper 1 (Количество: 1) Mega Releaser 3 (Количество: 1) Mega Releaser 1 (Количество: 1)
Торрент-статистика

Создавать темы 29-Апр-2016 16:35

[Цитировать]

Информация о фильме
Название: Шматрица
Оригинальное название: The Matrix
Год выхода: 1999 / 2003
Жанр: Пародия, комедия, юмористический перевод
Режиссер: Л. Вачовски, Э. Вачовски, Дмитрий "Goblin" Пучков
В ролях: Киану Ривз, Лоренс Фишбёрн, Кэрри-Энн Мосс, Хьюго Уивинг, Джо Пантольяно, Глория Фостер, Маркус Чонг, Джулиан Араханга, Мэтт Доран, Белинда МакКлори
О фильме:
Группа умалишённых, совершивших побег из дурдома особого режима, уверенно полагает себя советскими партизанами, а санитаров — гестаповцами. Возглавляет группу матёрый шизофреник Матвей. Амбулаторный больной Нео страдает лёгким расстройством психики. Но сбежавшие из дурдома граждане объясняют ему, что на самом деле всё не так, как ему кажется. Что на самом деле кругом фашисты. И что война до сих пор так и не закончилась. Судьба мира и фашистской матрицы — в руках надежды Сопротивления, симпатичного штурмбанфюрера Нео!
Страна: США, Австралия
Продолжительность: 02:17:0611
Перевод: профессиональный одноголосый (смешной перевод студии Божья искра)
Файл
Качество: BDRip 720p
Формат: MP4
Видео: MPEG-4 AVC, 1280x532, 3 738 Kbps, 23.976 fps
Аудио: 48 kHz, AAC, 2 ch, ~160 kbps
Семпл
Примечание автора раздачи:
Релиз от Альянса Вольных Переводчиков.
Знаменитый перевод пересобран в HD-качестве. Ремастеринг - Андрей Кравец.
Официальный сайт

MI

General
Complete name : D:__==film_FShmatrica.2003.BDRip.720p.mp4
Format : MPEG-4
Format profile : Base Media / Version 2
Codec ID : mp42 (mp42/mp41)
File size : 3.73 GiB
Duration : 2h 17mn
Overall bit rate mode : Variable
Overall bit rate : 3 900 Kbps
Encoded date : UTC 2014-03-11 22:44:05
Tagged date : UTC 2014-03-11 22:44:05
©TIM : 00:00:00:00
©TSC : 24000
©TSZ : 1001
Video
ID : 1
Format : AVC
Format/Info : Advanced Video Codec
Format profile : High@L4.1
Format settings, CABAC : Yes
Format settings, ReFrames : 3 frames
Format settings, GOP : M=3, N=72
Codec ID : avc1
Codec ID/Info : Advanced Video Coding
Duration : 2h 17mn
Source duration : 2h 17mn
Bit rate : 3 738 Kbps
Width : 1 280 pixels
Height : 532 pixels
Display aspect ratio : 2.40:1
Frame rate mode : Variable
Frame rate : 23.976 (24000/1001) fps
Minimum frame rate : 23.976 fps
Maximum frame rate : 24.000 fps
Standard : NTSC
Color space : YUV
Chroma subsampling : 4:2:0
Bit depth : 8 bits
Scan type : Progressive
Bits/(Pixel*Frame) : 0.229
Stream size : 3.58 GiB (96%)
Source stream size : 3.58 GiB (96%)
Language : English
Encoded date : UTC 2014-03-11 22:44:05
Tagged date : UTC 2014-03-11 22:44:05
Color range : Limited
Color primaries : BT.709
Transfer characteristics : BT.709
Matrix coefficients : BT.709
mdhd_Duration : 8226427
Audio
ID : 2
Format : AAC
Format/Info : Advanced Audio Codec
Format profile : LC
Codec ID : 40
Duration : 2h 17mn
Source duration : 2h 17mn
Bit rate mode : Variable
Bit rate : 157 Kbps
Maximum bit rate : 263 Kbps
Channel(s) : 2 channels
Channel positions : Front: L R
Sampling rate : 48.0 KHz
Frame rate : 46.875 fps (1024 spf)
Compression mode : Lossy
Stream size : 154 MiB (4%)
Source stream size : 154 MiB (4%)
Language : English
Encoded date : UTC 2014-03-11 22:44:05
Tagged date : UTC 2014-03-11 22:44:05
mdhd_Duration : 8226475
Релиз от:
[Профиль] [ЛС]
Кто просматривает тему:

Показать сообщения:    

Текущее время: Сегодня 18:38

Часовой пояс: GMT



Вы не можете начинать темы
Вы не можете отвечать на сообщения
Вы не можете редактировать свои сообщения
Вы не можете удалять свои сообщения
Вы не можете голосовать в опросах
Вы не можете прикреплять файлы к сообщениям
Вы не можете скачивать файлы