Школа с уклоном, или Урок-опера для родителей (Л. Апраксина) [1984, Молдова-филм, музыкальная анимация, TeleSynch]

 
Автор Сообщение

TorrentFilm ®

Пол:

Стаж: 2 года

Сообщений: 7741



Награды: Нет

Торрент-статистика

Создавать темы 17-Дек-2014 02:30

[Цитировать]

Школа с уклоном, или Урок-опера для родителей
Страна: СССР
Жанр: музыкальная анимация
Продолжительность: 00:09:00
Год выпуска: 1984
Режиссёр: Л. Апраксина
Автор сценария: Г. Бардин
Стихи : Ю. Энтин
Описание: В мультфильме высмеивается стремление некоторых родителей вырастить из своих детей вундеркиндов даже тогда, когда для этого нет никаких оснований
Доп. информация: Фильм оцифрован с киноплёнки 16-мм
Качество: TeleSynch
Формат: MPEG
Видео: MPEG, 4:3, 720х576, 25 fps, 3765 kbps
Аудио: Layer 2, 48 кHz, 2 ch, 256 kbps

Подробные технические данные

ОбщееПолное имя :Школа с уклоном, или урок-опера для родителей.mpgФормат : MPEG-PSРазмер файла : 243 МбайтПродолжительность : 9 м. 2 с.Режим общего битрейта : ПеременныйОбщий поток : 3765 Кбит/сек
ВидеоИдентификатор : 224 (0xE0)Формат : MPEG VideoВерсия формата : Version 2Профиль формата : Main@MainПараметр BVOP формата : ДаПараметр матрицы формата : По умолчаниюПараметр GOP формата : VariableПродолжительность : 9 м. 2 с.Вид битрейта : ПеременныйБитрейт : 3434 Кбит/секШирина : 720 пикселейВысота : 576 пикселейСоотношение сторон : 5:4Частота кадров : 25,000 кадров/секСтандарт вещания : PALЦветовое пространство : YUVСубдискретизация насыщенности : 4:2:0Битовая глубина : 8 битТип развёртки : ПрогрессивнаяМетод сжатия : С потерямиБит/(Пиксели*Кадры) : 0.331Временной код первого кадра : 00:00:00:00Оригинал временного кода : Group of pictures headerРазмер потока : 222 Мбайт (91%)
АудиоИдентификатор : 192 (0xC0)Формат : MPEG AudioВерсия формата : Version 1Профиль формата : Layer 2Продолжительность : 9 м. 2 с.Вид битрейта : ПостоянныйБитрейт : 256 Кбит/секКаналы : 2 каналаЧастота : 48,0 КГцМетод сжатия : С потерямиРазмер потока : 16,6 Мбайт (7%)

Скриншоты

, , ,
[Профиль] [ЛС]
Показать сообщения:    

Текущее время: Сегодня 22:09

Часовой пояс: GMT



Вы не можете начинать темы
Вы не можете отвечать на сообщения
Вы не можете редактировать свои сообщения
Вы не можете удалять свои сообщения
Вы не можете голосовать в опросах
Вы не можете прикреплять файлы к сообщениям
Вы не можете скачивать файлы