Шкатулка проклятия / The Possession (2012) BDRemux 1080i | D | Rus Transfer

 
Автор Сообщение

sergej644 ®

Пол:

Стаж: 4 года 11 месяцев

Сообщений: 6043

Откуда: Soviet Union



Награды: Нет

Торрент-статистика

Создавать темы 17-Дек-2014 19:26

[Цитировать]

Информация о фильме
Название: Шкатулка проклятия
Оригинальное название: The Possession
Год выхода: 2012
Жанр: Ужасы, триллер
Режиссер: Уле Борнедаль
В ролях: Джеффри Дин Морган, Наташа Калис, Кира Седжвик, Мэдисон Девенпорт, Роб ЛаБелль, Матисьяху, Джей Бразо, Грант Шоу, Нана Гбивонио, Анна Хэган
О фильме:
Девочка покупает винтажную шкатулку на ярмарке в одном из соседних дворов. Поначалу родители не видят повода для беспокойства, когда их младшая дочь становится одержима новой игрушкой. Со временем поведение девочки становится все более странным, а реакции неожиданными, родители пытаются раскрыть секрет шкатулки. Они не подозревают, что в деревянной коробке живет злой дух, который творит страшные вещи со своими хозяевами — их было много и владели они этим «сокровищем» очень недолго. Отец девочки объединяется с бывшей женой в попытках найти способ снять проклятие с их ребенка.

Страна: США, Канада
Продолжительность: 01:28:28
Перевод: Дубляж
Файл
Контейнер: MKV
Качество: BDRemux 1080i [Rus Transfer]
Видео: MPEG-4 AVC Video / 24000 kbps / 1920x1080i / 25 fps / 16:9 / High Profile 4.1
Аудио 1: Русский / DTS-HD Master Audio / 2320 kbps / 7.1 / 48 kHz / 16-bit (DTS Core: 5.1-ES / 48 kHz / 1509 kbps / 16-bit) / Дубляж
Аудио 2: English / DTS-HD Master Audio / 3455 kbps / 5.1 / 48 kHz / 24-bit (DTS Core: 5.1 / 48 kHz / 1509 kbps / 24-bit) / Оригинал US Blu-ray
Аудио 3: English / Dolby Digital Audio / 256 kbps / 2.0 / 48 kHz / 16-bit / Комментарии US Blu-ray
Аудио 4: English / Dolby Digital Audio / 256 kbps / 2.0 / 48 kHz / 16-bit / Комментарии US Blu-ray
Субтитры: русские (Full), английские (Full, SDH, SDH Colored)

mInfo

Шкатулка проклятия (Одержимость) (The Possession) 2012, США, Канада, ужасы, триллер, Rus Transfer BDRemux 1080i GORESEWAGE.mkv
General
Unique ID : 222496479334388076160581084279627781179 (0xA76343618A17312E9AD5984601C7143B)
Complete name : Шкатулка проклятия (Одержимость) (The Possession) 2012, США, Канада, ужасы, триллер, Rus Transfer BDRemux 1080i GORESEWAGE.mkv
Format : Matroska
Format version : Version 4 / Version 2
File size : 18.6 GiB
Duration : 1h 28mn
Overall bit rate mode : Variable
Overall bit rate : 30.1 Mbps
Movie name : GORESEWAGE
Encoded date : UTC 2013-04-22 17:17:14
Writing application : mkvmerge v6.1.0 ('Old Devil') built on Mar 31 2013 15:21:18
Writing library : libebml v1.3.0 + libmatroska v1.4.0
Video #1
ID : 1
Format : AVC
Format/Info : Advanced Video Codec
Format profile : High@L4.1
Format settings, CABAC : Yes
Format settings, ReFrames : 4 frames
Codec ID : V_MPEG4/ISO/AVC
Duration : 1h 28mn
Bit rate mode : Variable
Bit rate : 25.8 Mbps
Maximum bit rate : 32.0 Mbps
Width : 1 920 pixels
Height : 1 080 pixels
Display aspect ratio : 16:9
Frame rate mode : Constant
Frame rate : 25.000 fps
Standard : PAL
Color space : YUV
Chroma subsampling : 4:2:0
Bit depth : 8 bits
Scan type : MBAFF
Bits/(Pixel*Frame) : 0.498
Stream size : 16.0 GiB (86%)
Title : GORESEWAGE
Language : English
Default : Yes
Forced : No
Color primaries : BT.709
Transfer characteristics : BT.709
Matrix coefficients : BT.709
Audio #2
ID : 2
Format : DTS
Format/Info : Digital Theater Systems
Format profile : MA / Core
Codec ID : A_DTS
Duration : 1h 28mn
Bit rate mode : Variable
Bit rate : 1 597 Kbps / 1 510 Kbps
Channel(s) : 8 channels / 6 channels
Channel positions : Front: L C R, Side: L R, Back: L R, LFE / Front: L C R, Side: L R, LFE
Sampling rate : 48.0 KHz
Bit depth : 16 bits
Compression mode : Lossless / Lossy
Title : Профессиональный (дублированный) R5
Language : Russian
Default : Yes
Forced : No
Audio #3
ID : 3
Format : DTS
Format/Info : Digital Theater Systems
Format profile : MA / Core
Codec ID : A_DTS
Duration : 1h 28mn
Bit rate mode : Variable
Bit rate : 1 561 Kbps / 1 510 Kbps
Channel(s) : 6 channels
Channel positions : Front: L C R, Side: L R, LFE
Sampling rate : 48.0 KHz
Bit depth : 24 bits
Compression mode : Lossless / Lossy
Title : Оригинал
Language : English
Default : No
Forced : No
Audio #4
ID : 4
Format : AC-3
Format/Info : Audio Coding 3
Mode extension : CM (complete main)
Format settings, Endianness : Big
Codec ID : A_AC3
Duration : 1h 28mn
Bit rate mode : Constant
Bit rate : 256 Kbps
Channel(s) : 2 channels
Channel positions : Front: L R
Sampling rate : 48.0 KHz
Bit depth : 16 bits
Compression mode : Lossy
Stream size : 162 MiB (1%)
Title : Комментарии 1
Language : English
Default : No
Forced : No
Audio #5
ID : 5
Format : AC-3
Format/Info : Audio Coding 3
Mode extension : CM (complete main)
Format settings, Endianness : Big
Codec ID : A_AC3
Duration : 1h 28mn
Bit rate mode : Constant
Bit rate : 256 Kbps
Channel(s) : 2 channels
Channel positions : Front: L R
Sampling rate : 48.0 KHz
Bit depth : 16 bits
Compression mode : Lossy
Stream size : 162 MiB (1%)
Title : Комментарии 2
Language : English
Default : No
Forced : No
Text #6
ID : 6
Format : UTF-8
Codec ID : S_TEXT/UTF8
Codec ID/Info : UTF-8 Plain Text
Title : Full
Language : Russian
Default : No
Forced : No
Text #7
ID : 7
Format : UTF-8
Codec ID : S_TEXT/UTF8
Codec ID/Info : UTF-8 Plain Text
Title : Full
Language : English
Default : No
Forced : No
Text #8
ID : 8
Format : UTF-8
Codec ID : S_TEXT/UTF8
Codec ID/Info : UTF-8 Plain Text
Title : SDH
Language : English
Default : No
Forced : No
Text #9
ID : 9
Format : UTF-8
Codec ID : S_TEXT/UTF8
Codec ID/Info : UTF-8 Plain Text
Title : SDH Colored
Language : English
Default : No
Forced : No
Menu
00:00:00.000 : en:00:00:00.000
00:07:17.920 : en:00:07:17.920
00:14:24.200 : en:00:14:24.200
00:20:47.960 : en:00:20:47.960
00:29:44.400 : en:00:29:44.400
00:35:44.640 : en:00:35:44.640
00:44:22.120 : en:00:44:22.120
00:51:16.160 : en:00:51:16.160
01:00:00.840 : en:01:00:00.840
01:05:33.120 : en:01:05:33.120
01:14:01.440 : en:01:14:01.440
01:23:09.600 : en:01:23:09.600
[Профиль] [ЛС]
Кто просматривает тему:

Показать сообщения:    

Текущее время: Сегодня 10:53

Часовой пояс: GMT



Вы не можете начинать темы
Вы не можете отвечать на сообщения
Вы не можете редактировать свои сообщения
Вы не можете удалять свои сообщения
Вы не можете голосовать в опросах
Вы не можете прикреплять файлы к сообщениям
Вы не можете скачивать файлы