Широкое Саргассово море / Wide Sargasso Sea (Брендан Махер / Brendan Maher) [2006, Великобритания, драма, мелодрама, DVDRip] MVO (Intra Communications) + Original Eng

 
Автор Сообщение

TorrentFilm ®

Пол:

Стаж: 2 года

Сообщений: 7741



Награды: Нет

Торрент-статистика

Создавать темы 18-Янв-2016 00:08

[Цитировать]

Широкое Саргассово море / Wide Sargasso Sea
Страна: Великобритания
Жанр: драма, мелодрама
Год выпуска: 2006
Продолжительность: 01:23:50
Перевод: Профессиональный (многоголосый закадровый) Intra Communications
Cубтитры: нет
Оригинальная аудиодорожка: английский отдельным файлом
Режиссер: Брендан Махер / Brendan Maher
В ролях: Рейф Сполл, Ребекка Холл, Нина Сосанья, Виктория Хэмилтон, Фрайзер Эйрс, Лоррэйн Барроуз, Алекс Робертсон, Карен Мигер...
Описание: Саргасово море — смерть для моряков. Оно кишит водорослями, затягивающими, не дающими выплыть… Молодые люди полюбили друг друга и были счастливы. Пока Эдвард не получил анонимное письмо о семье Антуанетт… А дело тут не только в роковой тайне, характерной для романов прошлого века, и не только в противоречиях типа «страстная креолка — холодный англичанин». Дело в вечном непонимании между мужчиной и женщиной, подобному водорослям, не заметным на первый взгляд, но способным убить…
Доп. информация: Перевод Intra Communications с раздачи MacSim47. Синхронизация звука - Dreven.
Сэмпл: http://multi-up.com/1083564
Качество видео: DVDRip
Формат видео: AVI
Видео: 688x384 (1.79:1), 25 fps, XviD build 50 ~1049 kbps avg, 0.16 bit/pixel
Аудио 1: 48 kHz, AC3 Dolby Digital, 2/0 (L,R) ch, ~192 kbps Rus
Аудио 2: 48 kHz, AC3 Dolby Digital, 2/0 (L,R) ch, ~224 kbps Eng отдельным файлом

MediaInfo

General
Complete name : C:\Wide Sargasso Sea.avi
Format : AVI
Format/Info : Audio Video Interleave
File size : 750 MiB
Duration : 1h 23mn
Overall bit rate : 1 252 Kbps
Writing application : VirtualDubMod 1.5.10.3 (build 2550/release)
Writing library : VirtualDubMod build 2550/release
Video
ID : 0
Format : MPEG-4 Visual
Format profile : Advanced Simple@L5
Format settings, BVOP : 1
Format settings, QPel : No
Format settings, GMC : No warppoints
Format settings, Matrix : Default (MPEG)
Codec ID : XVID
Codec ID/Hint : XviD
Duration : 1h 23mn
Bit rate : 1 050 Kbps
Width : 688 pixels
Height : 384 pixels
Display aspect ratio : 16:9
Frame rate : 25.000 fps
Color space : YUV
Chroma subsampling : 4:2:0
Bit depth : 8 bits
Scan type : Progressive
Compression mode : Lossy
Bits/(Pixel*Frame) : 0.159
Stream size : 629 MiB (84%)
Writing library : XviD 1.2.1 (UTC 2008-12-04)
Audio
ID : 1
Format : AC-3
Format/Info : Audio Coding 3
Mode extension : CM (complete main)
Format settings, Endianness : Big
Codec ID : 2000
Duration : 1h 23mn
Bit rate mode : Constant
Bit rate : 192 Kbps
Channel(s) : 2 channels
Channel positions : Front: L R
Sampling rate : 48.0 KHz
Compression mode : Lossy
Stream size : 115 MiB (15%)
Alignment : Split accross interleaves
Interleave, duration : 40 ms (1.00 video frame)
Interleave, preload duratio : 500 ms

Скриншоты

[Профиль] [ЛС]
Показать сообщения:    

Текущее время: Сегодня 08:28

Часовой пояс: GMT



Вы не можете начинать темы
Вы не можете отвечать на сообщения
Вы не можете редактировать свои сообщения
Вы не можете удалять свои сообщения
Вы не можете голосовать в опросах
Вы не можете прикреплять файлы к сообщениям
Вы не можете скачивать файлы