Ширли-мырли (Владимир Меньшов) [1995, Россия, комедия, WEB-DL 720p]

 
Автор Сообщение

TorrentFilm ®

Пол:

Стаж: 2 года

Сообщений: 7741



Награды: Нет

Торрент-статистика

Создавать темы 26-Дек-2014 02:00

[Цитировать]

Ширли-мырли- Год выпуска: 1995
Страна: Россия
Жанр: комедия
Продолжительность: 02:15:15
Cубтитры: нет-Режиссер: Владимир Меньшов
В ролях: Валерий Гаркалин, Вера Алентова, Игорь Угольников, Инна Чурикова, Сергей Баталов, Армен Джигарханян, Леонид Куравлёв, Нонна Мордюкова, Олег Табаков, Олег Ефремов
О фильме: Невероятная история о братьях - близнецах, никогда прежде не слыхавших друг о друге. Один из них, в младенчестве подброшенный в табор, стал цыганским бароном; другой рос в детском доме - и теперь он еврей - музыкант с мировым именем; третьего воспитывала родная тетя, и домашнее воспитание принесло свои плоды: он стал авторитетнейшим в СНГ вором и аферистом.
Именно он, благодаря своим талантам, обводит вокруг пальца главу мафии и похищает фантастический алмаз «Спаситель России». Стоимость найденного в Сибири драгоценного камня такова, что вся страна сможет 3 года отдыхать на Канарских островах. Его размерами потрясено мировое сообщество. Английская королева рыдает, закрывшись в спальне.
Южно - африканские шахтеры поклялись не выходить на поверхность, пока не отыщут более крупный самородок... А в России сенсация следует за сенсацией! Находка века породила ограбление века! Мир, затаив дыхание, следит за стремительной сменой событий...-Релиз:
Формат: MKV
Видео: 987@740x720 at 25 fps, MPEG-4 AVC , ~4000 kbps avg
Аудио: 48 kHz, AC3, 3/2 (L,C,R,l,r) + LFE ch, ~384.00 kbps avg
Семпл-

Скриншоты


-

mInfo


Формат : Matroska
Версия формата : Version 2
Размер файла : 4,30 Гбайт
Продолжительность : 2 ч. 15 м.
Общий поток : 4552 Кбит/сек
Название фильма : What a Mess! (1995) - Release for HDCLUB
Дата кодирования : UTC 2014-12-09 21:03:06
Программа кодирования : mkvmerge v3.4.0 ('Rapunzel') built on May 15 2010 09:38:20
Библиотека кодирования : libebml v0.8.0 + libmatroska v0.9.0
Видео
Идентификатор : 1
Формат : AVC
Формат/Информация : Advanced Video Codec
Профиль формата : Main@L3.1
Параметр CABAC формата : Нет
Параметр ReFrames формата : 2 кадра
Идентификатор кодека : V_MPEG4/ISO/AVC
Продолжительность : 2 ч. 15 м.
Битрейт : 4077 Кбит/сек
Ширина : 740 пикселей
Высота : 720 пикселей
Соотношение сторон : 1,371
Соотношение сторон в оригинале : 1,370
Режим частоты кадров : Постоянный
Частота кадров : 25,000 кадров/сек
Цветовое пространство : YUV
Субдискретизация насыщенности : 4:2:0
Битовая глубина : 8 бит
Тип развёртки : Прогрессивная
Бит/(Пиксели*Кадры) : 0.306
Размер потока : 3,85 Гбайт (90%)
Заголовок : What a Mess! (1995) - Release for HDCLUB
Язык : Russian
Default : Да
Forced : Нет
Основные цвета : BT.709
Характеристики трансфера : BT.709
Коэффициенты матрицы : BT.709
Аудио
Идентификатор : 2
Формат : AC-3
Формат/Информация : Audio Coding 3
Расширение режима : CM (complete main)
Параметр Endianness формата : Big
Идентификатор кодека : A_AC3
Продолжительность : 2 ч. 15 м.
Вид битрейта : Постоянный
Битрейт : 384 Кбит/сек
Каналы : 6 каналов
Расположение каналов : Front: L C R, Side: L R, LFE
Частота : 48,0 КГц
Битовая глубина : 16 бит
Метод сжатия : С потерями
Размер потока : 371 Мбайт (8%)
Заголовок : AC3 5.1 @ 384 kbps
Язык : Russian
Default : Да
Forced : Нет
Меню
00:00:00.000 : ru:Глава 1
00:06:03.000 : ru:Глава 2
00:09:58.000 : ru:Глава 3
00:16:08.000 : ru:Глава 4
00:22:26.000 : ru:Глава 5
00:28:32.000 : ru:Глава 6
00:33:57.000 : ru:Глава 7
00:39:39.000 : ru:Глава 8
00:47:34.000 : ru:Глава 9
00:55:19.000 : ru:Глава 10
01:00:22.000 : ru:Глава 11
01:08:26.000 : ru:Глава 12
01:15:09.000 : ru:Глава 13
01:19:41.000 : ru:Глава 14
01:25:47.000 : ru:Глава 15
01:31:54.000 : ru:Глава 16
01:38:36.000 : ru:Глава 17
01:43:21.000 : ru:Глава 18
01:48:34.000 : ru:Глава 19
01:53:42.000 : ru:Глава 20
01:58:16.000 : ru:Глава 21
02:03:48.000 : ru:Глава 22
02:10:10.000 : ru:Глава 23

-
* Сохранены оригинальные чаптеры.
* Исходный WEB-DL куплен в рамках сервиса "Копилка".
[Профиль] [ЛС]
Показать сообщения:    

Текущее время: Сегодня 10:52

Часовой пояс: GMT



Вы не можете начинать темы
Вы не можете отвечать на сообщения
Вы не можете редактировать свои сообщения
Вы не можете удалять свои сообщения
Вы не можете голосовать в опросах
Вы не можете прикреплять файлы к сообщениям
Вы не можете скачивать файлы