Ширинка / Молния / Zipper (Мора Стивенс / Mora Stephens) [2015, США, триллер, драма, HDRip] (lucky ann) + Sub Rus

 
Автор Сообщение

TorrentFilm ®

Пол:

Стаж: 2 года

Сообщений: 7741



Награды: Нет

Торрент-статистика

Создавать темы 20-Окт-2015 00:07

[Цитировать]

Ширинка / Молния / Zipper
Страна: США
Жанр: триллер, драма
Год выпуска: 2015
Продолжительность: 01:52:39
Перевод: Субтитры lucky_ann
Cубтитры: русские
Оригинальная аудиодорожка: английский
Режиссер: Мора Стивенс / Mora Stephens
В ролях: Патрик Уилсон, Лина Хиди, Рэй Уинстон, Ричард Дрейфусс, Джон Чо, Дианна Агрон, Кристофер МакДональд, Александра Брекенридж, Пенелопа Митчелл, Елена Сатине
Описание: История о семьянине, который рискует потерять все, потому что не может подавить свою страсть к другим женщинам.
Сэмпл: http://multi-up.com/1071539
Качество видео: HDRip (исходник: BDRip)
Формат видео: AVI
Видео: XVID, 720x304, 2.35:1, 23.976 fps, 1 420 Kbps
Аудио: 48 kHz, AC-3, 6 channels , 384 Kbps
Формат субтитров: softsub (SRT)

MediaInfo

Format : AVI
Format/Info : Audio Video Interleave
File size : 1.43 GiB
Duration : 1h 52mn
Overall bit rate : 1 813 Kbps
Writing library : VirtualDub build 32593/release
Video
ID : 0
Format : MPEG-4 Visual
Format profile : Advanced Simple@L5
Format settings, BVOP : 2
Format settings, QPel : No
Format settings, GMC : No warppoints
Format settings, Matrix : Default (H.263)
Muxing mode : Packed bitstream
Codec ID : XVID
Codec ID/Hint : XviD
Duration : 1h 52mn
Bit rate : 1 420 Kbps
Width : 720 pixels
Height : 304 pixels
Display aspect ratio : 2.35:1
Frame rate : 23.976 fps
Color space : YUV
Chroma subsampling : 4:2:0
Bit depth : 8 bits
Scan type : Progressive
Compression mode : Lossy
Bits/(Pixel*Frame) : 0.271
Stream size : 1.12 GiB (78%)
Writing library : XviD 66
Audio
ID : 1
Format : AC-3
Format/Info : Audio Coding 3
Mode extension : CM (complete main)
Format settings, Endianness : Big
Codec ID : 2000
Duration : 1h 52mn
Bit rate mode : Constant
Bit rate : 384 Kbps
Channel(s) : 6 channels
Channel positions : Front: L C R, Side: L R, LFE
Sampling rate : 48.0 KHz
Bit depth : 16 bits
Compression mode : Lossy
Stream size : 309 MiB (21%)
Alignment : Aligned on interleaves
Interleave, duration : 42 ms (1.00 video frame)
Interleave, preload duration : 512 ms

Скриншот c названием фильма

Скриншоты

Субтитры

3
00:00:42,042 --> 00:00:44,777
Ожидается, что федеральный прокурор Сэм Эллис
4
00:00:44,779 --> 00:00:46,645
будет выдвигаться на более высокую должность.
5
00:00:46,647 --> 00:00:50,282
Вскоре будет вынесен приговор
6
00:00:50,284 --> 00:00:51,784
по федеральному уголовному делу.
7
00:00:51,786 --> 00:00:55,220
... что Эллис собирается избираться
в Кабинет президента.
8
00:00:55,222 --> 00:00:57,256
Судьба Эллиса зависит от сегодняшнего решения.
9
00:00:57,258 --> 00:00:59,258
Сегодняшнее решение либо даст старт
10
00:00:59,260 --> 00:01:00,759
его политической карьере...
... Предположительно он будет
11
00:01:00,761 --> 00:01:03,062
выдвигаться на пост Генерального прокурора.
12
00:01:03,064 --> 00:01:05,130
Мистер Эллис?
13
00:01:05,132 --> 00:01:07,366
Да.
14
00:01:07,368 --> 00:01:08,434
Мы тут собираемся с ребятами
15
00:01:08,436 --> 00:01:10,202
сходить отпраздновать победу.
16
00:01:10,204 --> 00:01:12,504
Все ждут, что вы тоже придёте.
17
00:01:12,506 --> 00:01:15,407
Разве нам не нужно сначала выиграть?
18
00:01:15,409 --> 00:01:17,276
Не могу представить, чтобы вы проиграли.
19
00:01:24,851 --> 00:01:27,286
Всем встать.
20
00:01:28,589 --> 00:01:30,422
Не думаете, что приговор шерифу Хауслеру
мог бы быть смягчен,
21
00:01:30,424 --> 00:01:32,791
учитывая его гос.службу?
22
00:01:32,793 --> 00:01:34,460
Как я сказал на суде, Джим,
23
00:01:34,462 --> 00:01:37,229
в этом деле не может быть компромиссов.
Как с юридической так и с моральной стороны.
24
00:01:37,231 --> 00:01:38,831
Особенный подход здесь недопустим.
[Профиль] [ЛС]
Показать сообщения:    

Текущее время: Сегодня 13:03

Часовой пояс: GMT



Вы не можете начинать темы
Вы не можете отвечать на сообщения
Вы не можете редактировать свои сообщения
Вы не можете удалять свои сообщения
Вы не можете голосовать в опросах
Вы не можете прикреплять файлы к сообщениям
Вы не можете скачивать файлы