Шик (Бахтиер Худойназаров) [2003 г., Драма, комедия, DVDRip]

 
Автор Сообщение

Один 777 ®

Пол:

Стаж: 1 год 8 месяцев

Сообщений: 456

Откуда: Луцк



Награды: 7 (Подробнее)

За внесенный вклад в развитие сайта (Количество: 1) Mega Seeder 3 (Количество: 1) Mega Seeder 1 (Количество: 1)
Торрент-статистика

Создавать темы 01-Сен-2016 08:53

[Цитировать]

Шик
Год выпуска: 2003
Страна: Россия, Германия, Франция, Италия, Украина / Централ Партнершип, Orly Films, Pandora Filmproduktion GmbH, Paradis Films, Poetiche Cinematografiche, VISS
Жанр: Драма, комедия
Продолжительность: 01:32:15
Cубтитры: нет
Режиссер: Бахтиер Худойназаров
В ролях: Александр Яценко, Артур Смольянинов, Иван Кокорин, Ингеборга Дапкунайте, Андрей Панин, Николай Фоменко, Руслана Рухадзе, Сергей Апрельский, Евгений Воскресенский, Игорь Письменный...
Описание: Неподалеку от большого портового города жили-были три закадычных друга, ребята из бедных семей. Заглядываясь на роскошные витрины дорогих магазинов и проплывающие мимо них огромные корабли, они мечтали о таком же богатстве и счастье. И вот однажды друзья увидели в модном «бутике» костюм от «Гуччи» - само воплощение крутости и шика.
Всеми правдами и неправдами они скопили на него деньги и попытались с его помощью добиться успеха в жизни. Однако ни счастья, ни богатства «обновка» им не принесла - напротив, ободренные первой удачей, ребята навлекли на свою голову большие беды…

Сэмпл: http://sendfile.su/1261655

Качество: DVDRip
Формат: AVI
Видео кодек: XviD
Аудио кодек: АС3
Видео: 704x384 (1.83:1), 25 fps, XviD build 73 ~1811 kbps avg, 0.27 bit/pixel
Аудио: 48 kHz, AC3 Dolby Digital, 3/2 (L,C,R,l,r) + LFE ch, ~448 kbps

MediaInfo

Общее
Полное имя : D:\Shik.2003.DVDRip.1400.[Один 777].avi
Формат : AVI
Формат/Информация : Audio Video Interleave
Размер файла : 1,46 Гбайт
Продолжительность : 1 ч. 32 м.
Общий поток : 2269 Кбит/сек
Программа кодирования : VirtualDubMod 1.5.10.3 | www.virtualdub-fr.org || (build 2550/release)
Библиотека кодирования : VirtualDubMod build 2550/release
Видео
Идентификатор : 0
Формат : MPEG-4 Visual
Профиль формата : Advanced Simple@L5
Параметр BVOP формата : 1
Параметр QPel формата : Нет
Параметр GMC формата : Без точки перехода
Параметр матрицы формата : Default (H.263)
Идентификатор кодека : XVID
Идентификатор кодека/Подсказка : XviD
Продолжительность : 1 ч. 32 м.
Битрейт : 1812 Кбит/сек
Ширина : 704 пикселя
Высота : 384 пикселя
Соотношение сторон : 1,85:1
Частота кадров : 25,000 кадров/сек
Цветовое пространство : YUV
Субдискретизация насыщенности : 4:2:0
Битовая глубина : 8 бит
Тип развёртки : Прогрессивная
Метод сжатия : С потерями
Бит/(Пиксели*Кадры) : 0.268
Размер потока : 1,17 Гбайт (80%)
Библиотека кодирования : XviD 73
Аудио
Идентификатор : 1
Формат : AC-3
Формат/Информация : Audio Coding 3
Расширение режима : CM (complete main)
Параметр Endianness формата : Big
Идентификатор кодека : 2000
Продолжительность : 1 ч. 32 м.
Вид битрейта : Постоянный
Битрейт : 448 Кбит/сек
Каналы : 6 каналов
Расположение каналов : Front: L C R, Side: L R, LFE
Частота : 48,0 КГц
Частота кадров : 31,250 кадров/сек (1536 spf)
Метод сжатия : С потерями
Размер потока : 296 Мбайт (20%)
Выравнивание : Разделение по промежуткам
Продолжительность промежутка : 40 мс. (1,00 видеокадр)
Время предзагрузки промежутка : 500 мс.

Скриншот c названием фильма

Скриншоты

[Профиль] [ЛС]
Показать сообщения:    

Текущее время: Сегодня 14:28

Часовой пояс: GMT



Вы не можете начинать темы
Вы не можете отвечать на сообщения
Вы не можете редактировать свои сообщения
Вы не можете удалять свои сообщения
Вы не можете голосовать в опросах
Вы не можете прикреплять файлы к сообщениям
Вы не можете скачивать файлы