Шик (Бахтиер Худойназаров) [2003 г., Драма, комедия, DVDRip]

 
Автор Сообщение

Один 777 ®

Пол:

Стаж: 1 год 8 месяцев

Сообщений: 456

Откуда: Луцк



Награды: 7 (Подробнее)

Mega Seeder 1 (Количество: 1) Mega Seeder 4 (Количество: 1) Mega Releaser 2 (Количество: 1)
Торрент-статистика

Создавать темы 01-Сен-2016 06:20

[Цитировать]

Шик
Год выпуска: 2003
Страна: Россия, Германия, Франция, Италия, Украина / Централ Партнершип, Orly Films, Pandora Filmproduktion GmbH, Paradis Films, Poetiche Cinematografiche, VISS
Жанр: Драма, комедия
Продолжительность: 01:32:15
Cубтитры: нет
Режиссер: Бахтиер Худойназаров
В ролях: Александр Яценко, Артур Смольянинов, Иван Кокорин, Ингеборга Дапкунайте, Андрей Панин, Николай Фоменко, Руслана Рухадзе, Сергей Апрельский, Евгений Воскресенский, Игорь Письменный...
Описание: Неподалеку от большого портового города жили-были три закадычных друга, ребята из бедных семей. Заглядываясь на роскошные витрины дорогих магазинов и проплывающие мимо них огромные корабли, они мечтали о таком же богатстве и счастье. И вот однажды друзья увидели в модном «бутике» костюм от «Гуччи» - само воплощение крутости и шика.
Всеми правдами и неправдами они скопили на него деньги и попытались с его помощью добиться успеха в жизни. Однако ни счастья, ни богатства «обновка» им не принесла - напротив, ободренные первой удачей, ребята навлекли на свою голову большие беды…

Сэмпл: http://sendfile.su/1261622

Качество: DVDRip
Формат: AVI
Видео кодек: XviD
Аудио кодек: MP3
Видео: 640x352 (1.82:1), 25 fps, XviD build 73 ~997 kbps avg, 0.18 bit/pixel
Аудио: 48 kHz, MPEG Layer 3, 2 ch, ~128.00 kbps avg

MediaInfo

Общее
Полное имя : D:\Shik.2003.DVDRip.740.[Один 777].avi
Формат : AVI
Формат/Информация : Audio Video Interleave
Размер файла : 749 Мбайт
Продолжительность : 1 ч. 32 м.
Общий поток : 1135 Кбит/сек
Программа кодирования : VirtualDubMod 1.5.10.3 | www.virtualdub-fr.org || (build 2550/release)
Библиотека кодирования : VirtualDubMod build 2550/release
Видео
Идентификатор : 0
Формат : MPEG-4 Visual
Профиль формата : Advanced Simple@L5
Параметр BVOP формата : 1
Параметр QPel формата : Нет
Параметр GMC формата : Без точки перехода
Параметр матрицы формата : Default (H.263)
Идентификатор кодека : XVID
Идентификатор кодека/Подсказка : XviD
Продолжительность : 1 ч. 32 м.
Битрейт : 997 Кбит/сек
Ширина : 640 пикселей
Высота : 352 пикселя
Соотношение сторон : 16:9
Частота кадров : 25,000 кадров/сек
Цветовое пространство : YUV
Субдискретизация насыщенности : 4:2:0
Битовая глубина : 8 бит
Тип развёртки : Прогрессивная
Метод сжатия : С потерями
Бит/(Пиксели*Кадры) : 0.177
Размер потока : 658 Мбайт (88%)
Библиотека кодирования : XviD 73
Аудио
Идентификатор : 1
Формат : MPEG Audio
Версия формата : Version 1
Профиль формата : Layer 3
Идентификатор кодека : 55
Идентификатор кодека/Подсказка : MP3
Продолжительность : 1 ч. 32 м.
Вид битрейта : Постоянный
Битрейт : 128 Кбит/сек
Каналы : 2 канала
Частота : 48,0 КГц
Метод сжатия : С потерями
Размер потока : 84,5 Мбайт (11%)
Выравнивание : Соединение по промежуткам
Продолжительность промежутка : 40 мс. (1,00 видеокадр)
Время предзагрузки промежутка : 504 мс.
Библиотека кодирования : LAME3.99r
Настройки программы : -m s -V 4 -q 2 -lowpass 17 -b 128

Скриншот c названием фильма

Скриншоты

[Профиль] [ЛС]
Показать сообщения:    

Текущее время: Сегодня 21:00

Часовой пояс: GMT



Вы не можете начинать темы
Вы не можете отвечать на сообщения
Вы не можете редактировать свои сообщения
Вы не можете удалять свои сообщения
Вы не можете голосовать в опросах
Вы не можете прикреплять файлы к сообщениям
Вы не можете скачивать файлы